Солдаты Фортуны / Men Of War (1994) BDRip-AVC от Leon-masl | Unrated Cut | P, A

 
Автор Сообщение

Russian Mafia ®

Пол:

Стаж: 1 год 8 месяцев

Сообщений: 4256



Награды: 10 (Подробнее)

Top Releaser 5 (Количество: 1) За внесенный вклад в развитие сайта (Количество: 1) Mega Seeder 3 (Количество: 1)
Торрент-статистика

Создавать темы 01-Авг-2016 12:49

[Цитировать]

Информация о фильме
Название: Солдаты Фортуны
Оригинальное название: Men Of War
Год выхода: 1994
Жанр: боевик, приключения
Режиссер: Перри Лэнг / Perry Lang
В ролях: Дольф Лундгрен, Шарлотта Льюис, Б.Д. Вонг, Энтони Джон Дэнисон, Тим Гини, Дон Харви, Том ’Тайни’ Листер мл., Том Райт, Кэтрин Белл, Тревор Годдар
О фильме:
Профессиональный наемник в компании пятерых таких же, как он, солдат удачи, высаживается на остров в Тихом океане, чтобы силой «убедить» его жителей подписать контракт на разработку минералов. Внезапно он осознает, что воюет не на той стороне и становится защитником тех, кого изначально должен был убить…

Страна: США
Продолжительность: 01:42:46
Перевод: Профессиональный (многоголосый закадровый) Twister, Профессиональный (многоголосый закадровый) Студия "Синхрон" по заказу "ЕА" и "Вест-Видео", Авторский (одноголосый закадровый) А.Гаврилов
Файл
Формат: MKV
Качество: BDRip-AVC
Видео: 1024x456, 23.976 fps, 2440 kbps
Аудио 1: 48 kHz, 2ch, AC3, 192 kbps.....Профессиональный (многоголосый закадровый) Twister
Аудио 2: 48 kHz, 2ch, AC3, 192 kbps.....Профессиональный (многоголосый закадровый) EA
Аудио 3: 48 kHz, 2ch, AC3, 192 kbps.....Авторский (одноголосый закадровый) А.Гаврилов

MI

Общее
Уникальный идентификатор : 238003902859525274593298960477404326519 (0xB30DE264182969639DD21BF48C74EA77)
Полное имя : Men.of.War.1994.3xRUS.BDRip-AVC.x264.mkv
Формат : Matroska
Размер файла : 2,17 Гбайт
Продолжительность : 1 ч. 42 м.
Общий поток : 3016 Кбит/сек
Дата кодирования : UTC 2016-08-01 09:32:59
Программа кодирования : mkvmerge v6.1.0 ('Old Devil') built on Mar 4 2013 09:10:42
Библиотека кодирования : libebml v1.3.0 + libmatroska v1.4.0
Видео
Идентификатор : 1
Формат : AVC
Формат/Информация : Advanced Video Codec
Профиль формата : High@L4.1
Параметр CABAC формата : Да
Параметр ReFrames формата : 11 кадры
Идентификатор кодека : V_MPEG4/ISO/AVC
Продолжительность : 1 ч. 42 м.
Битрейт : 2440 Кбит/сек
Ширина : 1024 пикс.
Высота : 456 пикс.
Соотношение сторон : 2,25:1
Частота кадров : 23,976 кадр/сек
Цветовое пространство : YUV
Подвыборка цветности : 4:2:0
Битовая глубина : 8 бит
Тип развёртки : Прогрессивная
Бит/(Пиксели*Кадры) : 0.218
Размер потока : 1,71 Гбайт (79%)
Библиотека кодирования : x264 core 130 r2273 b3065e6
Настройки программы : cabac=1 / ref=11 / deblock=1:-2:-2 / analyse=0x3:0x133 / me=umh / subme=11 / psy=1 / psy_rd=1.00:0.20 / mixed_ref=1 / me_range=32 / chroma_me=1 / trellis=2 / 8x8dct=1 / cqm=0 / deadzone=21,11 / fast_pskip=0 / chroma_qp_offset=-6 / threads=6 / lookahead_threads=1 / sliced_threads=0 / nr=0 / decimate=0 / interlaced=0 / bluray_compat=0 / constrained_intra=0 / bframes=12 / b_pyramid=2 / b_adapt=2 / b_bias=0 / direct=3 / weightb=1 / open_gop=0 / weightp=2 / keyint=240 / keyint_min=23 / scenecut=40 / intra_refresh=0 / rc_lookahead=60 / rc=2pass / mbtree=1 / bitrate=2440 / ratetol=1.0 / qcomp=0.70 / qpmin=0 / qpmax=69 / qpstep=4 / cplxblur=20.0 / qblur=0.5 / vbv_maxrate=50000 / vbv_bufsize=62500 / nal_hrd=none / ip_ratio=1.40 / aq=1:1.00
Аудио #1
Идентификатор : 2
Формат : AC-3
Формат/Информация : Audio Coding 3
Расширение режима : CM (complete main)
Идентификатор кодека : A_AC3
Продолжительность : 1 ч. 42 м.
Вид битрейта : Постоянный
Битрейт : 192 Кбит/сек
Канал(ы) : 2 канала(ов)
Расположение каналов : Front: L R
Частота : 48,0 КГц
Битовая глубина : 16 бит
Метод сжатия : С потерями
Размер потока : 141 Мбайт (6%)
Заголовок : MVO_TWISTER
Язык : Russian
Аудио #2
Идентификатор : 3
Формат : AC-3
Формат/Информация : Audio Coding 3
Расширение режима : CM (complete main)
Идентификатор кодека : A_AC3
Продолжительность : 1 ч. 42 м.
Вид битрейта : Постоянный
Битрейт : 192 Кбит/сек
Канал(ы) : 2 канала(ов)
Расположение каналов : Front: L R
Частота : 48,0 КГц
Битовая глубина : 16 бит
Метод сжатия : С потерями
Размер потока : 141 Мбайт (6%)
Заголовок : MVO_Екатеринбург_АРТ
Аудио #3
Идентификатор : 4
Формат : AC-3
Формат/Информация : Audio Coding 3
Расширение режима : CM (complete main)
Идентификатор кодека : A_AC3
Продолжительность : 1 ч. 42 м.
Вид битрейта : Постоянный
Битрейт : 192 Кбит/сек
Канал(ы) : 2 канала(ов)
Расположение каналов : Front: L R
Частота : 48,0 КГц
Битовая глубина : 16 бит
Метод сжатия : С потерями
Размер потока : 141 Мбайт (6%)
Заголовок : AVO_А.Гаврилов
Меню
00:00:00.000 : en:00:00:00.000
00:00:00.375 : en:00:00:00.375
00:14:33.623 : en:00:14:33.623
00:30:12.394 : en:00:30:12.394
00:44:00.972 : en:00:44:00.972
00:59:22.350 : en:00:59:22.350
01:14:48.109 : en:01:14:48.109
01:28:48.323 : en:01:28:48.323
01:39:15.491 : en:01:39:15.491

Скриншоты

Релиз от: Leon-masl
[Профиль] [ЛС]
Кто просматривает тему:

Форум Тема Автор Размер
Фильмы (HD Rips | 720p, 1080p) 13 часов: Тайные солдаты Бенгази / 13 Hours (2016) BDRip 720p от HELLYWOOD | Лицензия Russian Mafia 7.95 GB
Фильмы (DVD 5/9) 13 часов: Тайные солдаты Бенгази / 13 Hours (2016) DVD5 | D достали все 4.37 GB
Фильмы (HD DVD, Blu-ray и BDRemux) 13 часов: Тайные солдаты Бенгази / 13 Hours: The Secret Soldiers of Benghazi (2016) BDRemux 1080p от ExKinoRay | Лицензия Russian Mafia 33.12 GB
Фильмы (HD Rips | 720p, 1080p) 13 часов: Тайные солдаты Бенгази / 13 Hours: The Secret Soldiers of Benghazi (2016) BDRip 1080p | Лицензия достали все 17.48 GB
Фильмы (HD Rips | 720p, 1080p) 13 часов: Тайные солдаты Бенгази / 13 Hours: The Secret Soldiers of Benghazi (2016) BDRip 1080p от ExKinoRay | Лицензия Russian Mafia 17.48 GB
Фильмы (HD Rips | 720p, 1080p) 13 часов: Тайные солдаты Бенгази / 13 Hours: The Secret Soldiers of Benghazi (2016) BDRip 720p | Лицензия Russian Mafia 8.57 GB
Фильмы (HD Rips | 720p, 1080p) 13 часов: Тайные солдаты Бенгази / 13 Hours: The Secret Soldiers of Benghazi (2016) BDRip 720p от ExKinoRay | Лицензия Russian Mafia 11.95 GB
Фильмы 2016 года 13 часов: Тайные солдаты Бенгази / 13 Hours: The Secret Soldiers of Benghazi (2016) BDRip | Лицензия Russian Mafia 1.46 GB
Показать сообщения:    

Текущее время: Сегодня 18:36

Часовой пояс: GMT



Вы не можете начинать темы
Вы не можете отвечать на сообщения
Вы не можете редактировать свои сообщения
Вы не можете удалять свои сообщения
Вы не можете голосовать в опросах
Вы не можете прикреплять файлы к сообщениям
Вы не можете скачивать файлы