Сокрытые миры / Hidden Kingdoms (Саймон Белл, Гэвин Максвелл / Simon Bell, Gavin Maxwell) [2014, документальный, Blu-ray disc]

 
Автор Сообщение

TorrentFilm ®

Пол:

Стаж: 2 года

Сообщений: 7741



Награды: Нет

Торрент-статистика

Создавать темы 16-Мар-2015 00:00

[Цитировать]

Сокрытые миры / Hidden Kingdoms
Год выпуска: 2014
Страна: Италия, Канада, Франция, Великобритания
Студия: BBC Television Centre, Discovery Channel, France Télévision
Жанр: документальный
Продолжительность: 03:00:00
Перевод: Отсутствует
Русские субтитры: нет
Режиссер: Саймон Белл, Гэвин Максвелл / Simon Bell, Gavin Maxwell
Описание: Наша планета населена миллионами различных животных. Чаще всего наше внимание привлекают крупные и сильные, но в этом фильме речь пойдет о крохотных существах, живущих прямо у нас под ногами. От создателей «BBC: Планета Земля»
Тип релиза:
Blu-ray
BD-25 Single-Layer Disc
2-Disc Set
Контейнер: BDMV
Видео: Codec: MPEG-4 AVC Resolution: 1080p Aspect ratio: 1.78:1 Original aspect ratio: 1.78:1
Аудио: English: DTS-HD Master Audio 5.1

MediaInfo

DISC INFO:
Disc Title: HIDDEN_KINGDOMS_D1Disc Size: 24 164 213 168 bytesProtection: AACSBD-Java: NoExtras: 50Hz ContentBDInfo: 0.5.8
PLAYLIST REPORT:
Name: 00004.MPLSLength: 0:51:24.081 (h:m:s.ms)Size: 11 829 338 112 bytesTotal Bitrate: 30,68 Mbps
VIDEO:
Codec Bitrate Description----- ------- -----------MPEG-4 AVC Video 27000 kbps 1080p / 23,976 fps / 16:9 / High Profile 4.1
AUDIO:
Codec Language Bitrate Description----- -------- ------- -----------DTS-HD Master Audio English 2086 kbps 5.1 / 48 kHz / 2086 kbps / 16-bit (DTS Core: 5.1 / 48 kHz / 1509 kbps / 16-bit)
SUBTITLES:
Codec Language Bitrate Description----- -------- ------- -----------Presentation Graphics Dutch 19,879 kbps
FILES:
Name Time In Length Size Total Bitrate---- ------- ------ ---- -------------00004.M2TS 0:00:00.000 0:51:24.081 11 829 338 112 30 685
PLAYLIST REPORT:
Name: 00003.MPLSLength: 0:50:38.952 (h:m:s.ms)Size: 11 858 977 152 bytesTotal Bitrate: 31,22 Mbps
VIDEO:
Codec Bitrate Description----- ------- -----------MPEG-4 AVC Video 27494 kbps 1080p / 23,976 fps / 16:9 / High Profile 4.1
AUDIO:
Codec Language Bitrate Description----- -------- ------- -----------DTS-HD Master Audio English 2107 kbps 5.1 / 48 kHz / 2107 kbps / 16-bit (DTS Core: 5.1 / 48 kHz / 1509 kbps / 16-bit)
SUBTITLES:
Codec Language Bitrate Description----- -------- ------- -----------Presentation Graphics Dutch 15,697 kbps
FILES:
Name Time In Length Size Total Bitrate---- ------- ------ ---- -------------00005.M2TS 0:00:00.000 0:50:37.951 11 858 952 576 31 22800007.M2TS 0:50:37.951 0:00:01.000 24 576 196
DISC INFO:
Disc Title: HIDDEN_KINGDOMS_D2Disc Size: 21 258 966 564 bytesProtection: AACSBD-Java: NoExtras: 50Hz ContentBDInfo: 0.5.8
PLAYLIST REPORT:
Name: 00004.MPLSLength: 0:51:56.655 (h:m:s.ms)Size: 13 974 773 760 bytesTotal Bitrate: 35,87 Mbps
VIDEO:
Codec Bitrate Description----- ------- -----------MPEG-4 AVC Video 32000 kbps 1080p / 23,976 fps / 16:9 / High Profile 4.1
AUDIO:
Codec Language Bitrate Description----- -------- ------- -----------DTS-HD Master Audio English 2056 kbps 5.1 / 48 kHz / 2056 kbps / 16-bit (DTS Core: 5.1 / 48 kHz / 1509 kbps / 16-bit)
SUBTITLES:
Codec Language Bitrate Description----- -------- ------- -----------Presentation Graphics Dutch 19,187 kbps
FILES:
Name Time In Length Size Total Bitrate---- ------- ------ ---- -------------00004.M2TS 0:00:00.000 0:51:56.655 13 974 773 760 35 871

Скриншоты




[Профиль] [ЛС]
Показать сообщения:    

Текущее время: Сегодня 00:36

Часовой пояс: GMT



Вы не можете начинать темы
Вы не можете отвечать на сообщения
Вы не можете редактировать свои сообщения
Вы не можете удалять свои сообщения
Вы не можете голосовать в опросах
Вы не можете прикреплять файлы к сообщениям
Вы не можете скачивать файлы