Сокровище нации / National Treasure (2004) BDRip 1080p | D

 
Автор Сообщение

BOSS ®

Пол:

Стаж: 2 года 1 месяц

Сообщений: 3732

Откуда: ODESSA



Награды: 20 (Подробнее)

Mega Seeder 2 (Количество: 1) Top Keeper 1 (Количество: 1) Top Releaser 4 (Количество: 1)
Торрент-статистика

Создавать темы 10-Янв-2016 11:20

[Цитировать]

Информация о фильме
Название: Сокровище нации
Оригинальное: National Treasure
Год выхода: 2004
Выпущено: Jerry Bruckheimer Films, Junction Entertainment, Saturn Films, Walt Disney Pictures
Страна: США
Жанр: Приключения, триллер, боевик
Продолжительность: 02:11:06
Перевод: Дублированный (Blu-ray EUR)
Режиссер: Джон Тёртелтауб
В ролях: Николас Кейдж, Дайан Крюгер, Джастин Барта, Шон Бин, Джон Войт, Харви Кейтель, Кристофер Пламмер, Дэвид Дайан Фишер, Стюарт Финлэй-МакЛеннан, Олег Тактаров, Стефен А. Поуп, Энни Парисс, Марк Пеллегрино, Армандо Риско, Эрик Кинг, Дон МакМанус, Рон Кэнада, Хантер Гомез, Дебора Йэтс, Арабелла Филд, Шэрон Уилкинс
-Сюжет фильма
Современные охотники за сокровищами во главе с Беном Франклином Гейтсом узнают старинную легенду о сокровище, спрятанном еще отцами-основателями американского государства Джорджем Вашингтоном, Бенджамином Франклином и Томасом Джефферсоном. Узнать тайну клада можно с помощью Декларации Независимости США, в которой зашифрована разгадка. Но помимо разгадывания изощренной головоломки, нашим героям предстоит сразиться с любителями легкой наживы, жаждущим погреть руки на достоянии республики...-Файл
Кодек: x264
Формат: MKV
Качество: BDRip 1080p (Источник: Blu-ray)
Видео: MPEG-4 AVC 1920x800 pix, 23.976 fps, 11336 kbps, 0.308 Bits/Pixel
Аудио I: Dolby Digital 5.1 ch, 48 kHz, 640 kbps (Rus)
Аудио II: Dolby Digital 5.1 ch, 48 kHz, 640 kbps (Eng)
Субтитры: SRT Русские (форсированные, полные), Английские
Меню: Сохранены оригинальные чаптеры Blu-ray

MI & x264

x264 [info]: frame I:1704 Avg QP:16.27 size:187381
x264 [info]: frame P:43966 Avg QP:17.67 size: 92688
x264 [info]: frame B:142889 Avg QP:19.83 size: 47214
x264 [info]: consecutive B-frames: 2.2% 4.4% 8.6% 25.2% 30.0% 21.5% 5.6% 1.7% 0.8%-General
Unique ID : 192461586540960567168300575860838369485 (0x90CAC0D610474F089933761AB35408CD)
Format : Matroska
Format version : Version 2
File size : 11.5 GiB
Duration : 2h 11mn
Overall bit rate : 12.6 Mbps
Movie name : Сокровище нации (2004) BDRip (1080p)
Encoded date : UTC 2016-01-04 17:42:00
Writing application : mkvmerge v5.8.0 ('No Sleep / Pillow') built on Sep 2 2012 15:37:04
Writing library : libebml v1.2.3 + libmatroska v1.3.0
Video
ID : 1
Format : AVC
Format/Info : Advanced Video Codec
Format profile : High@L4.1
Format settings, CABAC : Yes
Format settings, ReFrames : 5 frames
Codec ID : V_MPEG4/ISO/AVC
Bit rate : 11.3 Mbps
Width : 1 920 pixels
Height : 800 pixels
Display aspect ratio : 2.40:1
Frame rate mode : Constant
Frame rate : 23.976 fps
Color space : YUV
Chroma subsampling : 4:2:0
Bit depth : 8 bits
Scan type : Progressive
Bits/(Pixel*Frame) : 0.308
Title : Release by Alex260680
Writing library : x264 core 148 r2597 e86f3a1
Encoding settings : cabac=1 / ref=5 / deblock=1:-3:-3 / analyse=0x3:0x133 / me=umh / subme=11 / psy=1 / psy_rd=1.05:0.00 / mixed_ref=1 / me_range=48 / chroma_me=1 / trellis=2 / 8x8dct=1 / cqm=0 / deadzone=21,11 / fast_pskip=0 / chroma_qp_offset=-2 / threads=6 / lookahead_threads=1 / sliced_threads=0 / nr=0 / decimate=0 / interlaced=0 / bluray_compat=0 / constrained_intra=0 / bframes=8 / b_pyramid=2 / b_adapt=2 / b_bias=0 / direct=3 / weightb=1 / open_gop=0 / weightp=2 / keyint=240 / keyint_min=23 / scenecut=40 / intra_refresh=0 / rc=full2pass / mbtree=0 / bitrate=11336 / ratetol=1.0 / qcomp=0.60 / qpmin=0 / qpmax=69 / qpstep=4 / cplxblur=20.0 / qblur=0.5 / ip_ratio=1.40 / pb_ratio=1.30 / aq=1:0.85
Language : English
Default : Yes
Forced : No
Audio #1
ID : 2
Format : AC-3
Format/Info : Audio Coding 3
Mode extension : CM (complete main)
Format settings, Endianness : Big
Codec ID : A_AC3
Duration : 2h 11mn
Bit rate mode : Constant
Bit rate : 640 Kbps
Channel(s) : 6 channels
Channel positions : Front: L C R, Side: L R, LFE
Sampling rate : 48.0 KHz
Bit depth : 16 bits
Compression mode : Lossy
Stream size : 600 MiB (5%)
Title : DUB
Language : Russian
Default : Yes
Forced : No
Audio #2
ID : 3
Format : AC-3
Format/Info : Audio Coding 3
Mode extension : CM (complete main)
Format settings, Endianness : Big
Codec ID : A_AC3
Duration : 2h 11mn
Bit rate mode : Constant
Bit rate : 640 Kbps
Channel(s) : 6 channels
Channel positions : Front: L C R, Side: L R, LFE
Sampling rate : 48.0 KHz
Bit depth : 16 bits
Compression mode : Lossy
Stream size : 600 MiB (5%)
Title : Original
Language : English
Default : No
Forced : No
Text #1
ID : 4
Format : UTF-8
Codec ID : S_TEXT/UTF8
Codec ID/Info : UTF-8 Plain Text
Title : Forced
Language : Russian
Default : Yes
Forced : No
Text #2
ID : 5
Format : UTF-8
Codec ID : S_TEXT/UTF8
Codec ID/Info : UTF-8 Plain Text
Title : Full
Language : Russian
Default : No
Forced : No
Text #3
ID : 6
Format : UTF-8
Codec ID : S_TEXT/UTF8
Codec ID/Info : UTF-8 Plain Text
Title : Full
Language : English
Default : No
Forced : No

Награды

Сатурн, 2005 год
Номинации:
- Лучшая актриса второго плана (Дайан Крюгер)
- Лучший приключенческий фильм, боевик или триллер
[Профиль] [ЛС]
Кто просматривает тему:

Форум Тема Автор Размер
BBC BBC: Расшифрованные сокровища (Сокровища мира) / Treasures Decoded [сезоны 1-5(5) 2-6(6)] (Jo Locke, David New, Graeme Ball, Toby Trackman) [2014 г., Документальный, альтернативна... skorpionN 7 GB
BBC BBC: Сокровища Древнего Египта / Treasures of Ancient Egypt [серии 1-3 из 3] (Тим Дунн / Tim Dunn) [2012 г., Документальный, научно-познавательный, история, HDTVRip 720p] skorpionN 3.72 GB
Документальные HD BBC: Сокровища Древнего Рима / Treasures of Ancient Rome [серии 1-3 из 3] (Тим Дунн / Tim Dunn) [2012 г., Документальный, научно-познавательный, история, HDTVRip 720p] TorrentFilm 3.71 GB
BBC BBC: Сокровища Древней Греции / Treasures of Ancient Greece [серии 1-3 из 3] (David Vincent) [2015 г., Документальный, научно-познавательный, история, искусство, HDTVRip 720p] skorpionN 3.7 GB
BBC BBC: Сокровища Инда / Treasures of the Indus [серии 1-3 из 3] (Hugh Thomson) [2015 г., Документальный, путешествие, история, SATRip] skorpionN 1.81 GB
National Geographic NG: Стаффордширское сокровище. Секреты утраченного золота / Treasure Hoard. Secrets of the Lost Gold (Мэл Морпет / Mel Morpeth) [2011 г., Документальный, история, исследования, HDTVRip 720p] skorpionN 1.38 GB
Viasat History Viasat History: Сокровища Эрмитажа (Открывая Эрмитаж) / Hermitage Revealed (Margy Kinmonth) [2014 г., Документальный, история, искусство, SATRip] skorpionN 1.16 GB
Фантастика и фэнтези Брендон Сандерсон – Сокровищница Штормсвета 01. Обреченное королевство (2015) MP3 Swager 3.95 GB
Показать сообщения:    

Текущее время: Сегодня 06:08

Часовой пояс: GMT



Вы не можете начинать темы
Вы не можете отвечать на сообщения
Вы не можете редактировать свои сообщения
Вы не можете удалять свои сообщения
Вы не можете голосовать в опросах
Вы не можете прикреплять файлы к сообщениям
Вы не можете скачивать файлы