Сокровище нации 2: Книга Тайн / National Treasure: Book of Secrets (Джон Тёртелтауб / Jon Turteltaub) [2007, США, боевик, комедия, приключения, SATRip] [Full Screen] Dub

 
Автор Сообщение

TorrentFilm ®

Пол:

Стаж: 2 года

Сообщений: 7741



Награды: Нет

Торрент-статистика

Создавать темы 17-Фев-2016 00:09

[Цитировать]

Сокровище нации 2: Книга Тайн / National Treasure: Book of Secrets / Full Screen
Страна: США
Жанр: боевик, комедия, приключения
Год выпуска: 2007
Продолжительность: 01:52:31
Перевод: Профессиональный (дублированный)
Cубтитры: нет
Оригинальная аудиодорожка: нет
Режиссер: Джон Тёртелтауб / Jon Turteltaub
В ролях: Николас Кейдж, Джастин Барта, Дайан Крюгер, Джон Войт, Хелен Миррен, Эд Харрис, Харви Кейтел, Брюс Гринвуд, Ти Баррелл, Майкл Мейзе, Тимоти В. Мерфи, Алисия Коппола, Армандо Риско
Описание: Охотник за сокровищами Бен Гейтс, вооружившись поддержкой любимой женщины, верного друга Райли, а также своих родителей, отправляется на поиски затерянного золотого города. Только пройдя сквозь череду невероятных и увлекательных приключений, Бену удастся очистить имя своего предка от обвинений в убийстве Авраама Линкольна. Но не все так просто — параллельные поиски города ведет и некий Митч Уилкинсон, готовый на все ради достижения цели.
Доп. информация: Наполнение кадра DVB отличается от BD http://screenshotcomparison.com/comparison/160287
Сэмпл: http://multi-up.com/1089384
Качество видео: SATRip
Формат видео: AVI
Видео: MPEG4, XviD, 688x496 (1.387), 25.000 fps, 1 646 Kbps (0.193 bit/pixel)
Аудио: AC-3, 48.0 KHz, 2 ch, 192 Kbps, CBR

MediaInfo

Общее
Полное имя : N:\Сокровище нации 2. Книга Тайн.avi
Формат : AVI
Формат/Информация : Audio Video Interleave
Размер файла : 1,45 Гбайт
Продолжительность : 1 ч. 52 м.
Общий поток : 1848 Кбит/сек
Название фильма : Сокровище нации 2: Книга Тайн / National Treasure: Book of Secrets (2007)
Программа кодирования : VirtualDubMod 1.5.10.2 (build 2540/release)
Библиотека кодирования : VirtualDubMod build 2540/release
Авторское право : miha2154
Видео
Идентификатор : 0
Формат : MPEG-4 Visual
Профиль формата : Advanced Simple@L5
Параметр BVOP формата : 1
Параметр QPel формата : Нет
Параметр GMC формата : Без точки перехода
Параметр матрицы формата : Выборочная
Идентификатор кодека : XVID
Идентификатор кодека/Подсказка : XviD
Продолжительность : 1 ч. 52 м.
Битрейт : 1646 Кбит/сек
Ширина : 688 пикселей
Высота : 496 пикселей
Соотношение сторон : 1,387
Частота кадров : 25,000 кадров/сек
Цветовое пространство : YUV
Субдискретизация насыщенности : 4:2:0
Битовая глубина : 8 бит
Тип развёртки : Прогрессивная
Метод сжатия : С потерями
Бит/(Пиксели*Кадры) : 0.193
Размер потока : 1,29 Гбайт (89%)
Библиотека кодирования : XviD 65
Аудио
Идентификатор : 1
Формат : AC-3
Формат/Информация : Audio Coding 3
Расширение режима : CM (complete main)
Параметр Endianness формата : Big
Идентификатор кодека : 2000
Продолжительность : 1 ч. 52 м.
Вид битрейта : Постоянный
Битрейт : 192 Кбит/сек
Каналы : 2 канала
Расположение каналов : Front: L R
Частота : 48,0 КГц
Частота кадров : 31,250 кадров/сек (1536 spf)
Метод сжатия : С потерями
Размер потока : 155 Мбайт (10%)
Выравнивание : Разделение по промежуткам
Продолжительность промежутка : 40 мс. (1,00 видеокадр)
Время предзагрузки промежутка : 500 мс.
Заголовок : Профессиональный (полное дублирование)

Скриншоты


[Профиль] [ЛС]
Кто просматривает тему:

Форум Тема Автор Размер
BBC BBC: Расшифрованные сокровища (Сокровища мира) / Treasures Decoded [сезоны 1-5(5) 2-6(6)] (Jo Locke, David New, Graeme Ball, Toby Trackman) [2014 г., Документальный, альтернативна... skorpionN 7 GB
BBC BBC: Сокровища Древнего Египта / Treasures of Ancient Egypt [серии 1-3 из 3] (Тим Дунн / Tim Dunn) [2012 г., Документальный, научно-познавательный, история, HDTVRip 720p] skorpionN 3.72 GB
Документальные HD BBC: Сокровища Древнего Рима / Treasures of Ancient Rome [серии 1-3 из 3] (Тим Дунн / Tim Dunn) [2012 г., Документальный, научно-познавательный, история, HDTVRip 720p] TorrentFilm 3.71 GB
BBC BBC: Сокровища Древней Греции / Treasures of Ancient Greece [серии 1-3 из 3] (David Vincent) [2015 г., Документальный, научно-познавательный, история, искусство, HDTVRip 720p] skorpionN 3.7 GB
BBC BBC: Сокровища Инда / Treasures of the Indus [серии 1-3 из 3] (Hugh Thomson) [2015 г., Документальный, путешествие, история, SATRip] skorpionN 1.81 GB
National Geographic NG: Стаффордширское сокровище. Секреты утраченного золота / Treasure Hoard. Secrets of the Lost Gold (Мэл Морпет / Mel Morpeth) [2011 г., Документальный, история, исследования, HDTVRip 720p] skorpionN 1.38 GB
Viasat History Viasat History: Сокровища Эрмитажа (Открывая Эрмитаж) / Hermitage Revealed (Margy Kinmonth) [2014 г., Документальный, история, искусство, SATRip] skorpionN 1.16 GB
Фантастика и фэнтези Брендон Сандерсон – Сокровищница Штормсвета 01. Обреченное королевство (2015) MP3 Swager 3.95 GB
Показать сообщения:    

Текущее время: Сегодня 04:48

Часовой пояс: GMT



Вы не можете начинать темы
Вы не можете отвечать на сообщения
Вы не можете редактировать свои сообщения
Вы не можете удалять свои сообщения
Вы не можете голосовать в опросах
Вы не можете прикреплять файлы к сообщениям
Вы не можете скачивать файлы