Сокровища Тилламуке / The Tillamook Treasure (Джейн Бомон Холл / Jane Beaumont Hall) [2006, США, семейная драма, DVB-AVC] DVO (Kino Polska)

 
Автор Сообщение

TorrentFilm ®

Пол:

Стаж: 2 года

Сообщений: 7741



Награды: Нет

Торрент-статистика

Создавать темы 01-Июл-2015 00:10

[Цитировать]

Сокровища Тилламуке
The Tillamook Treasure- Страна: США
Жанр: семейная драма
Год выпуска: 2006
Продолжительность: 01:42:51Перевод: Профессиональный (двухголосый закадровый) по заказу Kino Polska на производственно-технической базе Студии "Акцент"
Cубтитры: нет
Режиссер: Джейн Бомон Холл / Jane Beaumont Hall
В ролях: Сьюзан Мари Дойон / Suzanne Marie Doyon (Julie Kimbell), Брайан Макнамара / Brian McNamara (Robert Kimbell), Джулия Кэмпбелл / Julia Campbell (Kathryn Kimbell), Брайан Томпсон / Brian Thompson (Jimmy Kimbell), Брэдли Страйкер / Bradley Stryker (Tom)
Описание: Фильм основан на индейской легенде о кладе, спрятанном испанскими моряками в 1590 году в горе Некани, и рассказывает о 14-летней девочке, чьи родители переехали их Калифорнии в Орегон, когда отец потерял работу. Джули пытается разгадать тайну сокровищ и таинственного лося Рузвельта, с которым она столкнулась на пляже…
Доп. информация: Filmbox IPTV
Награды: приз за лучший семейный фильм Toronto Fantasy Worldwide Film Festival 2006; 2 награды "Золотая катушка" Tiburon International Film Festival 2006 (лучший семейный фильм, лучший игровой семейный фильм); приз за лучший семейный фильм Newport Beach Film Festival 2006; лучший независимый фильм для детей в возрасте 5-12 лет Kids First! Film Festival 2007.

Качество видео: DVB-AVC
Формат видео: MKV
Видео: AVC (H.264), 720x576@1024x576 (16:9), 25 fps, ~1222 kbps avg, 0.126 bit/pixel
Аудио: MPEG Audio 2, 2 ch, 48 kHz, ~128.00 kbps avg

MediaInfo

ОбщееУникальный идентификатор : 212748322736083822228358191453249010665 (0xA00DD627534F0A7280D559D73A4CFBE9)Полное имя : F:\My Torrents 3\[apreder]The_Tillamook_Treasure(2006)DVB.mkvФормат : MatroskaВерсия формата : Version 2Размер файла : 1014 МбайтПродолжительность : 1 ч. 42 м.Общий поток : 1378 Кбит/секДата кодирования : UTC 2015-06-23 16:25:01Программа кодирования : mkvmerge v8.0.0 ('Til The Day That I Die') 64bitБиблиотека кодирования : libebml v1.3.1 + libmatroska v1.4.2
ВидеоИдентификатор : 2Формат : AVCФормат/Информация : Advanced Video CodecПрофиль формата : Main@L3Параметр CABAC формата : ДаПараметр ReFrames формата : 3 кадраИдентификатор кодека : V_MPEG4/ISO/AVCПродолжительность : 1 ч. 42 м.Битрейт : 1222 Кбит/секШирина : 720 пикселейВысота : 576 пикселейСоотношение сторон : 16:9Соотношение сторон в оригинале : 16:9Режим частоты кадров : ПостоянныйЧастота кадров : 23,456 кадра/секЧастота кадров в оригинале : 25,000 кадров/секСтандарт вещания : ComponentЦветовое пространство : YUVСубдискретизация насыщенности : 4:2:0Битовая глубина : 8 битТип развёртки : ЧересстрочнаяПорядок развёртки : Верхнее поле первоеБит/(Пиксели*Кадры) : 0.126Размер потока : 899 Мбайт (89%)Default : ДаForced : Нетcolour_range : LimitedОсновные цвета : BT.601 PALХарактеристики трансфера : BT.470 System B, BT.470 System GКоэффициенты матрицы : BT.601
АудиоИдентификатор : 1Формат : MPEG AudioВерсия формата : Version 1Профиль формата : Layer 2Режим : Joint stereoИдентификатор кодека : A_MPEG/L2Идентификатор кодека/Подсказка : MP2Продолжительность : 1 ч. 42 м.Вид битрейта : ПостоянныйБитрейт : 128 Кбит/секКаналы : 2 каналаЧастота : 48,0 КГцМетод сжатия : С потерямиЗадержка видео : -17 мс.Размер потока : 94,2 Мбайт (9%)Язык : RussianDefault : ДаForced : Нет

Скриншот c названием фильма

Скриншоты


Резервные скриншоты


-[2'373]
[Профиль] [ЛС]

Создавать темы 06-Авг-2015 22:25 (спустя 1 месяц 5 дней)

Топик был перенесен из форума Фильмы до 2014 года в форум Фильмы до 2012 года
sergej644
 
Кто просматривает тему:

Форум Тема Автор Размер
BBC BBC: Расшифрованные сокровища (Сокровища мира) / Treasures Decoded [сезоны 1-5(5) 2-6(6)] (Jo Locke, David New, Graeme Ball, Toby Trackman) [2014 г., Документальный, альтернативна... skorpionN 7 GB
BBC BBC: Сокровища Древнего Египта / Treasures of Ancient Egypt [серии 1-3 из 3] (Тим Дунн / Tim Dunn) [2012 г., Документальный, научно-познавательный, история, HDTVRip 720p] skorpionN 3.72 GB
Документальные HD BBC: Сокровища Древнего Рима / Treasures of Ancient Rome [серии 1-3 из 3] (Тим Дунн / Tim Dunn) [2012 г., Документальный, научно-познавательный, история, HDTVRip 720p] TorrentFilm 3.71 GB
BBC BBC: Сокровища Древней Греции / Treasures of Ancient Greece [серии 1-3 из 3] (David Vincent) [2015 г., Документальный, научно-познавательный, история, искусство, HDTVRip 720p] skorpionN 3.7 GB
BBC BBC: Сокровища Инда / Treasures of the Indus [серии 1-3 из 3] (Hugh Thomson) [2015 г., Документальный, путешествие, история, SATRip] skorpionN 1.81 GB
National Geographic NG: Стаффордширское сокровище. Секреты утраченного золота / Treasure Hoard. Secrets of the Lost Gold (Мэл Морпет / Mel Morpeth) [2011 г., Документальный, история, исследования, HDTVRip 720p] skorpionN 1.38 GB
Viasat History Viasat History: Сокровища Эрмитажа (Открывая Эрмитаж) / Hermitage Revealed (Margy Kinmonth) [2014 г., Документальный, история, искусство, SATRip] skorpionN 1.16 GB
Фантастика и фэнтези Брендон Сандерсон – Сокровищница Штормсвета 01. Обреченное королевство (2015) MP3 Swager 3.95 GB
Показать сообщения:    

Текущее время: Сегодня 14:34

Часовой пояс: GMT



Вы не можете начинать темы
Вы не можете отвечать на сообщения
Вы не можете редактировать свои сообщения
Вы не можете удалять свои сообщения
Вы не можете голосовать в опросах
Вы не можете прикреплять файлы к сообщениям
Вы не можете скачивать файлы