Создание из Черной лагуны в 3Д / Creature from the Black Lagoon 3D (Джек Арнольд / Jack Arnold) [1954, Боевик, Приключения, Ужасы., BDrip-AVC] Half OverUnder / Вертикальная анаморфная стереопара

 
Автор Сообщение

TorrentFilm ®

Пол:

Стаж: 2 года

Сообщений: 7741



Награды: Нет

Торрент-статистика

Создавать темы 02-Янв-2016 00:01

[Цитировать]

Создание из Черной лагуны3Д / Creature from the Black Lagoon3D«Not since the beginning of time has the world beheld terror like this!»
Год выпуска: 1954
Страна: США
Жанр: Боевик, Приключения, Ужасы.
Продолжительность: 01:19:14
Перевод: Профессиональный (многоголосый закадровый)
Русские субтитры: нет
Режиссер: Джек Арнольд / Jack ArnoldВ ролях:Ричард Карлсон,Джули Адамс,Ричард Дэннинг,Антонио Морено,Нестор Пайва
Уит Бисселл,Bernie Gozier,Генри А. Эскаланте,Рику Браунинг,Бен Чэпма.
Описание:Научная экспедиция отправляется в дебри Амазонки на поиски древних окаменелостей и сталкивается
с обитателем Черной Лагуны — доисторической рептилией.

Техн. детали съёмки

Съёмки: 13 октября 1953 — 15 ноября 1953
Формат изображения: 2.00 : 1
Камера: Universal 3-D
Формат копии: 35 mm (3-D version)
Формат съёмок: 35 mm (3-D version)
Изображение: чёрно-белое
Премьера: 5 марта 1954 (16 июня 1954)
Бюджет: ?
Кассовые сборы: $1 300 000

. .
Проверено на встроенном плейере ТВ LG LW 650S
--Качество: BDrip
Контейнер: MKV
Формат 3D: Half OverUnder / Вертикальная анаморфная стереопара
Порядок ракурсов: левый ракурс первый
Видео кодек: x264
Аудио кодек: AC3-Видео: AVC / 23,976 fps / 1920х1080p / 8760 Kbps
Аудио 1: - Русский / AC3 / 48 KHz / 2.0 ch / 256 Kbps (MVO)
Аудио 2: - Английский / AC3 / 48 KHz / 2.0 ch / 448 Kbps
Аудио 3: - Английский / AC3 / 48 KHz / 2.0 ch / 192 Kbps (комментарий режиссера)

MediaInfo

Общее
Уникальный идентификатор : 221685212525114559793819512311701818890 (0xA6C704D6D3A862739B0412F6222FCE0A)
Полное имя : E:\3Д фильмы\The Creature from the Black Lagoon (3D) 1954.BD3DRip.Half.OU.x264.AC3.3D-RuGroup.mkv
Формат : Matroska
Версия формата : Version 2
Размер файла : 5,33 Гбайт
Продолжительность : 1 ч. 19 м.
Общий поток : 9634 Кбит/сек
Название фильма : The Creature from the Black Lagoon 3D (1954) 3D-RuGroup
Дата кодирования : UTC 2012-10-28 12:36:20
Программа кодирования : mkvmerge v5.8.0 ('No Sleep / Pillow') built on Sep 2 2012 15:37:04
Библиотека кодирования : libebml v1.2.3 + libmatroska v1.3.0
Видео
Идентификатор : 1
Формат : AVC
Формат/Информация : Advanced Video Codec
Профиль формата : High@L4.1
Параметр CABAC формата : Да
Параметр ReFrames формата : 4 кадра
Идентификатор кодека : V_MPEG4/ISO/AVC
Продолжительность : 1 ч. 19 м.
Битрейт : 8760 Кбит/сек
Ширина : 1920 пикселей
Высота : 1080 пикселей
Соотношение сторон : 16:9
Режим частоты кадров : Постоянный
Частота кадров : 23,976 кадра/сек
Цветовое пространство : YUV
Субдискретизация насыщенности : 4:2:0
Битовая глубина : 8 бит
Тип развёртки : Прогрессивная
Бит/(Пиксели*Кадры) : 0.176
Размер потока : 4,73 Гбайт (89%)
Заголовок : by m@rik
Библиотека кодирования : x264 core 116 r2074 2641b9e
Настройки программы : cabac=1 / ref=4 / deblock=1:-3:-3 / analyse=0x3:0x133 / me=umh / subme=9 / psy=1 / psy_rd=1.00:0.05 / mixed_ref=1 / me_range=16 / chroma_me=1 / trellis=2 / 8x8dct=1 / cqm=0 / deadzone=21,11 / fast_pskip=1 / chroma_qp_offset=-3 / threads=12 / sliced_threads=0 / nr=0 / decimate=1 / interlaced=0 / bluray_compat=0 / constrained_intra=0 / bframes=6 / b_pyramid=2 / b_adapt=2 / b_bias=0 / direct=3 / weightb=1 / open_gop=0 / weightp=2 / keyint=250 / keyint_min=23 / scenecut=40 / intra_refresh=0 / rc_lookahead=60 / rc=abr / mbtree=1 / bitrate=8760 / ratetol=1.0 / qcomp=0.60 / qpmin=10 / qpmax=69 / qpstep=4 / vbv_maxrate=40000 / vbv_bufsize=40000 / nal_hrd=none / frame-packing=4 / ip_ratio=1.40 / aq=1:0.70
Язык : English
Default : Да
Forced : Нет
Аудио #1
Идентификатор : 2
Формат : AC-3
Формат/Информация : Audio Coding 3
Расширение режима : CM (complete main)
Параметр Endianness формата : Big
Идентификатор кодека : A_AC3
Продолжительность : 1 ч. 19 м.
Вид битрейта : Постоянный
Битрейт : 256 Кбит/сек
Каналы : 2 канала
Расположение каналов : Front: L R
Частота : 48,0 КГц
Битовая глубина : 16 бит
Метод сжатия : С потерями
Размер потока : 145 Мбайт (3%)
Заголовок : AC3 2.0 @ 256 kbps (MVO) многоголосый закадровый
Язык : Russian
Default : Да
Forced : Нет
Аудио #2
Идентификатор : 3
Формат : AC-3
Формат/Информация : Audio Coding 3
Расширение режима : CM (complete main)
Параметр Endianness формата : Big
Идентификатор кодека : A_AC3
Продолжительность : 1 ч. 19 м.
Вид битрейта : Постоянный
Битрейт : 448 Кбит/сек
Каналы : 2 канала
Расположение каналов : Front: L R
Частота : 48,0 КГц
Битовая глубина : 16 бит
Метод сжатия : С потерями
Размер потока : 254 Мбайт (5%)
Заголовок : AC3 2.0 @ 448 kbps (оригинальный)
Язык : English
Default : Нет
Forced : Нет
Аудио #3
Идентификатор : 4
Формат : AC-3
Формат/Информация : Audio Coding 3
Расширение режима : CM (complete main)
Параметр Endianness формата : Big
Идентификатор кодека : A_AC3
Продолжительность : 1 ч. 19 м.
Вид битрейта : Постоянный
Битрейт : 192 Кбит/сек
Каналы : 2 канала
Расположение каналов : Front: L R
Частота : 48,0 КГц
Битовая глубина : 16 бит
Метод сжатия : С потерями
Размер потока : 109 Мбайт (2%)
Заголовок : AC3 2.0 @ 192 kbps (коментарий)
Язык : English
Default : Нет
Forced : Нет
Меню
00:00:00.000 : en:00:00:00.000
00:01:10.821 : en:00:01:10.821
00:04:07.038 : en:00:04:07.038
00:10:26.918 : en:00:10:26.918
00:15:50.908 : en:00:15:50.908
00:20:19.969 : en:00:20:19.969
00:27:55.966 : en:00:27:55.966
00:32:21.481 : en:00:32:21.481
00:34:11.508 : en:00:34:11.508
00:43:01.287 : en:00:43:01.287
00:47:04.280 : en:00:47:04.280
00:51:21.412 : en:00:51:21.412
00:52:21.472 : en:00:52:21.472
00:55:31.286 : en:00:55:31.286
00:58:55.991 : en:00:58:55.991
01:14:17.411 : en:01:14:17.411
01:16:49.188 : en:01:16:49.188
01:18:45.012 : en:01:18:45.012

Log x264

:
[Профиль] [ЛС]
Кто просматривает тему:

Форум Тема Автор Размер
Фильмы 2014 года 300: Создание империи / 300 спартанцев: Расцвет империи / 300: Rise of an Empire (Ноам Мурро / Noam Murro) [2014, США, фэнтези, боевик, драма, военный, BDRip-AVC] VO (Есарев) + Sub Eng, Rus +... bot 2.79 GB
BBC BBC: Девять месяцев, которые создают нас / The Nine Months That Made You (Countdown to Life: The Extraordinary Making of You) [серии 1-3 из 3] (Naomi Austin, Helen Sage, Martin Johnson) [2015... skorpionN 2.16 GB
Da Vinci Learning Da Vinci Learning: BBC: Машина, которая нас создала / The Machine That Made Us (Патрик МакГрэйди / Patrick McGrady) [2008 г., Документальный, история, SATRip] skorpionN 971 MB
Документальные HD Marvel: Создание Вселенной / Marvel Studios: Assembling a Universe [2014, Документальный, WEB-DL 720p] TorrentFilm 1.36 GB
Работа с носителями информации Novicorp Bootable USB Replicator 0.2.0000 x86, создание образов загрузочных флэшек [2013, MULTILANG +RUS] TorrentFilm 14 MB
Документальные HD Pink Floyd: Создание Альбома "The Dark Side of the Moon" / Pink Floyd: The Making of "The Dark Side of the Moon" (2003) HDTVRip 720p sergej644 1.48 GB
Офисные программы Microsoft Power point. Создание презентаций с нуля 2.0 (2011) РС sergej644 1.97 GB
LiveCD System USB-Flash 10 v4.3 (Универсальное создание USB-накопителя) - Ubuntu x86, Windows XP SP3 x86, Windows 7 SP1 x86/x64, Windows 8.1 Update x86/x64, Драйвер-Паки для всех Windows (от 07.05.2015) MOTrOSS 31.19 GB
Показать сообщения:    

Текущее время: Сегодня 23:33

Часовой пояс: GMT



Вы не можете начинать темы
Вы не можете отвечать на сообщения
Вы не можете редактировать свои сообщения
Вы не можете удалять свои сообщения
Вы не можете голосовать в опросах
Вы не можете прикреплять файлы к сообщениям
Вы не можете скачивать файлы