Соединяя традиции. Оман - песок и пена. / Connecting Traditions: Sand and Foam (Oman)/ Traits d’Union: De Sable et d\'Écume (Oman) (Александр Мостра / Alexander Mostras) [2014, документальный, этнография, HDTV 1080i]

 
Автор Сообщение

TorrentFilm ®

Пол:

Стаж: 2 года

Сообщений: 7741



Награды: Нет

Торрент-статистика

Создавать темы 09-Апр-2015 00:03

[Цитировать]

Соединяя традиции. Оман - песок и пена. / Connecting Traditions: Sand and Foam (Oman)/ Traits d’Union: De Sable et d'Écume (Oman)
Год выпуска: 2014
Страна: Франция
Студия: Ma Drogue A Moi и Ushuaïa TV при участии F3 Corse ViaStella и TV5 Monde
Жанр: документальный, этнография
Продолжительность: 00:52:26
Перевод: Профессиональный (двухголосый закадровый)
Доп. инфо о переводе: SDI Media
Режиссер: Александр Мостра / Alexandre Mostras
Описание: Во всём мире люди бережно сохраняют самобытные традиции, передавая умения и образ жизни предков грядущим поколениям. С такими людьми, с защитниками культурного наследия, нас и познакомит фотограф и режиссёр Александр Мостра. Он расскажет нам о бедуинах, ремесленниках и рыбаках Сура и Маската, покажет пейзажи незабываемой красоты и напомнит нам о том насколько хрупким является наше культурное наследие.
Сэмпл: http://multi-up.com/1042235
Тип релиза: HDTV 1080i
Контейнер: TS
Видео: AVC, 1920x1080,16:9,7673kbps,25fps
Аудио: rus,MPEG Audio,2ch,48kHz,192kbps

MediaInfo

GeneralID : 12 (0xC)Complete name : C:\HD видео\Наследие древнейших культур Востока\Моё\03 Апрель - 18.00.10 - СОЕДИНЯЯ ТРАДИЦИИ. - Оман Песок и пена (12+)_fixed.tsFormat : MPEG-TSFile size : 3.03 GiBDuration : 52mn 26sOverall bit rate mode : VariableOverall bit rate : 8 276 Kbps
VideoID : 323 (0x143)Menu ID : 12103 (0x2F47)Format : AVCFormat/Info : Advanced Video CodecFormat profile : High@L4.0Format settings, CABAC : YesFormat settings, ReFrames : 4 framesCodec ID : 27Duration : 52mn 26sBit rate : 7 673 KbpsWidth : 1 920 pixelsHeight : 1 080 pixelsDisplay aspect ratio : 16:9Frame rate : 25.000 fpsStandard : ComponentColor space : YUVChroma subsampling : 4:2:0Bit depth : 8 bitsScan type : InterlacedScan order : Top Field FirstBits/(Pixel*Frame) : 0.148Stream size : 2.81 GiB (93%)Color primaries : BT.709Transfer characteristics : BT.709Matrix coefficients : BT.709Color range : Limited
AudioID : 403 (0x193)Menu ID : 12103 (0x2F47)Format : MPEG AudioFormat version : Version 1Format profile : Layer 2Codec ID : 4Duration : 52mn 26sBit rate mode : ConstantBit rate : 192 KbpsChannel(s) : 2 channelsSampling rate : 48.0 KHzCompression mode : LossyDelay relative to video : 42msStream size : 72.0 MiB (2%)

Скриншоты



[Профиль] [ЛС]
Показать сообщения:    

Текущее время: Сегодня 01:06

Часовой пояс: GMT



Вы не можете начинать темы
Вы не можете отвечать на сообщения
Вы не можете редактировать свои сообщения
Вы не можете удалять свои сообщения
Вы не можете голосовать в опросах
Вы не можете прикреплять файлы к сообщениям
Вы не можете скачивать файлы