Совсем мало времени 2 / Am zin 2 (2001) BDRemux 1080p | L1

 
Автор Сообщение

Russian Mafia ®

Пол:

Стаж: 1 год 8 месяцев

Сообщений: 4257



Награды: 10 (Подробнее)

За внесенный вклад в развитие сайта (Количество: 1) Top Releaser 5 (Количество: 1) Mega Seeder 2 (Количество: 1)
Торрент-статистика

Создавать темы 19-Авг-2016 04:33

[Цитировать]

Совсем мало времени 2 / Running Out of Time II / Am zin 2
Страна: Гонконг
Производство: China Star Entertainment, Milky Way Image Co. Ltd., One Hundred Years of Film Co. Ltd.
Год выпуска: 2001
Жанр: боевик, криминал
Продолжительность: 01:35:35
Режиссеры: Винг-Чеонг Лау, Джонни То
Авторы сценария: Яу Най-хой, Ау Кин-Йи, Жюльен Карбон
В ролях: Шон Лау Чин-ван, Экин Чэн, Келли Лин, Хуи Сиу Хун, Лам Сует, Руби Вонг, Юинь Шань Дин
Описание: С событий первого фильма инспектор Хо не изменился ничуть — он всё тот же чуть сдвинутый на работе, чуть более эксцентричный, чем следует, но по-прежнему гениальный сыщик, способный предсказывать поступки преступников на много ходов вперёд. Но на каждый винт с резьбой найдётся свой гаечный ключ — безымянный грабитель, шантажирующий главу страховой фирмы, заставит Хо и его людей побегать по городу...

Перевод: Любительский (одноголосый, закадровый) | viare
Субтитры: английские-Качество: BDRemux 1080p
Формат: MKV
Видео кодек: AVC
Аудио кодек: AС3 | DTS
Видео: 1920x1080 (16:9), 24.000 fps, MPEG-4 AVC ~25.6 Mbps
Аудио №1: 48.0 kHz, AC3 Dolby Digital, 2/0 (L,R) ch, ~320 kbps | RUS / viare
Аудио №2: 48.0 kHz, Digital Theater Systems МА, 8 ch, ~4063 kbps avg | CHI / Cantonese
Аудио №3: 48.0 kHz, AC3 Dolby Digital, 3/2 (L,C,R,l,r) + LFE ch, ~640 kbps | CHI / Mandarin
Формат субтитров: UTF-8 Plain Text
Дата премьеры (мир): 27 декабря 2001
Релиз от:

Media Info

General
Уникальный идентификатор : 187078423938055387628637321979403561963 (0x8CBDFE6DAE77A6C49DBA0DD04215EBEB)
Полное имя : Running.Out.Of.Time.2.2001.BDRemux.1080p_by_vedigo.mkv
Формат : Matroska
Версия формата : Version 4 / Version 2
Размер файла : 20,5 Гбайт
Продолжительность : 1 ч. 35 м.
Режим общего битрейта : Переменный
Общий поток : 30,6 Мбит/сек
Название фильма : Running.Out.Of.Time.2.2001.BDRemux.1080p_by_vedigo
Дата кодирования : UTC 2016-07-23 05:31:16
Программа кодирования : mkvmerge v9.3.1 ('Mask Machine') 64bit
Библиотека кодирования : libebml v1.3.4 + libmatroska v1.4.5
Видео
Идентификатор : 1
Формат : AVC
Формат/Информация : Advanced Video Codec
Профиль формата : High@L4.1
Параметр CABAC формата : Да
Параметр ReFrames формата : 4 кадра
Идентификатор кодека : V_MPEG4/ISO/AVC
Продолжительность : 1 ч. 35 м.
Вид битрейта : Переменный
Битрейт : 25,6 Мбит/сек
Максимальный битрейт : 32,0 Мбит/сек
Ширина : 1920 пикселей
Высота : 1080 пикселей
Соотношение сторон : 16:9
Режим частоты кадров : Постоянный
Частота кадров : 24,000 кадра/сек
Стандарт вещания : NTSC
Цветовое пространство : YUV
Субдискретизация насыщенности : 4:2:0
Битовая глубина : 8 бит
Тип развёртки : Прогрессивная
Бит/(Пиксели*Кадры) : 0.515
Размер потока : 17,1 Гбайт (84%)
Заголовок : Running.Out.Of.Time.2.2001.BDRemux.1080p_by_vedigo
Default : Да
Forced : Нет
Цветовой диапазон : Limited
Основные цвета : BT.709
Характеристики трансфера : BT.709
Коэффициенты матрицы : BT.709
Аудио #1
Идентификатор : 2
Формат : AC-3
Формат/Информация : Audio Coding 3
Расширение режима : CM (complete main)
Параметр Endianness формата : Big
Идентификатор кодека : A_AC3
Продолжительность : 1 ч. 35 м.
Вид битрейта : Постоянный
Битрейт : 320 Кбит/сек
Каналы : 2 канала
Расположение каналов : Front: L R
Частота : 48,0 КГц
Частота кадров : 31,250 кадров/сек (1536 spf)
Метод сжатия : С потерями
Размер потока : 218 Мбайт (1%)
Заголовок : VO @ viare
Язык : Russian
Default : Да
Forced : Нет
Аудио #2
Идентификатор : 3
Формат : DTS
Формат/Информация : Digital Theater Systems
Профиль формата : MA / Core
Режим : 16
Параметр Endianness формата : Big
Идентификатор кодека : A_DTS
Продолжительность : 1 ч. 35 м.
Вид битрейта : Переменный / Постоянный
Битрейт : 4063 Кбит/сек / 1509 Кбит/сек
Каналы : 8 каналов / 6 каналов
Расположение каналов : Front: L C R, Side: L R, Back: L R, LFE / Front: L C R, Side: L R, LFE
Частота : 48,0 КГц
Частота кадров : 93,750 кадра/сек (512 spf)
Битовая глубина : 24 бит
Метод сжатия : Без потерь / Lossy
Размер потока : 2,71 Гбайт (13%)
Заголовок : Cantonese
Язык : Chinese
Default : Нет
Forced : Нет
Аудио #3
Идентификатор : 4
Формат : AC-3
Формат/Информация : Audio Coding 3
Расширение режима : CM (complete main)
Параметр Endianness формата : Big
Идентификатор кодека : A_AC3
Продолжительность : 1 ч. 35 м.
Вид битрейта : Постоянный
Битрейт : 640 Кбит/сек
Каналы : 6 каналов
Расположение каналов : Front: L C R, Side: L R, LFE
Частота : 48,0 КГц
Частота кадров : 31,250 кадров/сек (1536 spf)
Метод сжатия : С потерями
Размер потока : 437 Мбайт (2%)
Заголовок : Mandarin
Язык : Chinese
Default : Нет
Forced : Нет
Текст
Идентификатор : 5
Формат : UTF-8
Идентификатор кодека : S_TEXT/UTF8
Идентификатор кодека/Информация : UTF-8 Plain Text
Продолжительность : 1 ч. 29 м.
Битрейт : 28 бит/сек
Count of elements : 831
Размер потока : 18,8 Кбайт (0%)
Заголовок : Subtitle eng
Язык : English
Default : Нет
Forced : Нет
Меню
00:00:00.000 : :Глава 01
00:05:43.167 : :Глава 02
00:10:44.375 : :Глава 03
00:15:06.583 : :Глава 04
00:19:20.500 : :Глава 05
00:22:22.083 : :Глава 06
00:26:07.458 : :Глава 07
00:30:49.583 : :Глава 08
00:34:02.208 : :Глава 09
00:38:56.625 : :Глава 10
00:43:20.458 : :Глава 11
00:46:36.083 : :Глава 12
00:51:29.208 : :Глава 13
00:56:04.917 : :Глава 14
01:02:56.333 : :Глава 15
01:07:51.000 : :Глава 16
01:13:46.250 : :Глава 17
01:17:53.250 : :Глава 18
01:22:55.083 : :Глава 19
01:29:25.792 : :Глава 20

Скриншоты

[Профиль] [ЛС]
Показать сообщения:    

Текущее время: Сегодня 00:36

Часовой пояс: GMT



Вы не можете начинать темы
Вы не можете отвечать на сообщения
Вы не можете редактировать свои сообщения
Вы не можете удалять свои сообщения
Вы не можете голосовать в опросах
Вы не можете прикреплять файлы к сообщениям
Вы не можете скачивать файлы