Совсем мало времени / Am zin (1999) BDRemux 1080p | А

 
Автор Сообщение

Russian Mafia ®

Пол:

Стаж: 1 год 8 месяцев

Сообщений: 4257



Награды: 10 (Подробнее)

Mega Seeder 4 (Количество: 1) Top Releaser 2 (Количество: 1) Top Releaser 5 (Количество: 1)
Торрент-статистика

Создавать темы 19-Авг-2016 04:33

[Цитировать]

Совсем мало времени / Running Out of Time / Am zin
Страна: Гонконг
Производство: China Star Entertainment, Milky Way Image Co. Ltd., Win's Entertainment Ltd.
Год выпуска: 1999
Жанр: боевик, триллер, драма, криминал
Продолжительность: 01:32:56
Режиссер: Джонни То
Авторы сценария: Яу Най-хой, Лоран Куртио, Жюльен Карбон
В ролях: Энди Лау, Шон Лау Чин-ван, Ёё Мунг, Вайсэ Лээ, Хуи Сиу Хун, Лам Сует, Руби Вонг, Вэй Аи, Вэй Кин Лам, Роберт Спаркс
Описание: Чеунг умирает от неизлечимой формы рака — по словам врачей, ему осталось жить всего несколько недель. Другой бы от такого известия сломался, но только не Чеунг. Вместо того, чтобы провести последние дни в постели, он затаривается мощными болеутоляющими и запускает в действие сложнейшую аферу, одним из главных действующих лиц в которой должен стать гениальный детектив Хо. Но даже Хо далеко не сразу поймет, что нужно Чеунгу на самом деле...

Перевод: Авторский (одноголосый, закадровый) | Сергей Кузнецов
Субтитры: английские-Качество: BDRemux 1080p
Формат: MKV
Видео кодек: AVC
Аудио кодек: AС3 | DTS
Видео: 1920x1080 (16:9), 24.000 fps, MPEG-4 AVC ~27.0 Mbps
Аудио №1: 48.0 kHz, AC3 Dolby Digital, 2/0 (L,R) ch, ~192 kbps | RUS / С.Кузнецов
Аудио №2: 48.0 kHz, Digital Theater Systems МА, 8 ch, ~4197 kbps avg | CHI / Cantonese
Аудио №3: 48.0 kHz, AC3 Dolby Digital, 3/2 (L,C,R,l,r) + LFE ch, ~640 kbps | CHI / Mandarin
Формат субтитров: UTF-8 Plain Text
Дата премьеры (мир): 23 сентября 1999
Релиз от:

Media Info

General
Уникальный идентификатор : 228551423485621561983113470836085681104 (0xABF1672D206EE110A7CA463D3FDCEBD0)
Полное имя : Running.Out.Of.Time.1999.BDRemux.1080p_by_vedigo.mkv
Формат : Matroska
Версия формата : Version 4 / Version 2
Размер файла : 20,8 Гбайт
Продолжительность : 1 ч. 32 м.
Режим общего битрейта : Переменный
Общий поток : 32,0 Мбит/сек
Название фильма : Running.Out.Of.Time.1999.BDRemux.1080p_by_vedigo
Дата кодирования : UTC 2016-07-22 04:57:09
Программа кодирования : mkvmerge v9.3.1 ('Mask Machine') 64bit
Библиотека кодирования : libebml v1.3.4 + libmatroska v1.4.5
Видео
Идентификатор : 1
Формат : AVC
Формат/Информация : Advanced Video Codec
Профиль формата : High@L4.1
Параметр CABAC формата : Да
Параметр ReFrames формата : 4 кадра
Идентификатор кодека : V_MPEG4/ISO/AVC
Продолжительность : 1 ч. 32 м.
Вид битрейта : Переменный
Битрейт : 27,0 Мбит/сек
Максимальный битрейт : 35,0 Мбит/сек
Ширина : 1920 пикселей
Высота : 1080 пикселей
Соотношение сторон : 16:9
Режим частоты кадров : Постоянный
Частота кадров : 24,000 кадра/сек
Стандарт вещания : NTSC
Цветовое пространство : YUV
Субдискретизация насыщенности : 4:2:0
Битовая глубина : 8 бит
Тип развёртки : Прогрессивная
Бит/(Пиксели*Кадры) : 0.542
Размер потока : 17,5 Гбайт (84%)
Заголовок : Running.Out.Of.Time.1999.BDRemux.1080p_by_vedigo
Default : Да
Forced : Нет
Цветовой диапазон : Limited
Основные цвета : BT.709
Характеристики трансфера : BT.709
Коэффициенты матрицы : BT.709
Аудио #1
Идентификатор : 2
Формат : AC-3
Формат/Информация : Audio Coding 3
Расширение режима : CM (complete main)
Параметр Endianness формата : Big
Идентификатор кодека : A_AC3
Продолжительность : 1 ч. 32 м.
Вид битрейта : Постоянный
Битрейт : 192 Кбит/сек
Каналы : 2 канала
Расположение каналов : Front: L R
Частота : 48,0 КГц
Частота кадров : 31,250 кадров/сек (1536 spf)
Метод сжатия : С потерями
Размер потока : 127 Мбайт (1%)
Заголовок : AVO @ С. Кузнецов
Язык : Russian
Default : Да
Forced : Нет
Аудио #2
Идентификатор : 3
Формат : DTS
Формат/Информация : Digital Theater Systems
Профиль формата : MA / Core
Режим : 16
Параметр Endianness формата : Big
Идентификатор кодека : A_DTS
Продолжительность : 1 ч. 32 м.
Вид битрейта : Переменный / Постоянный
Битрейт : 4197 Кбит/сек / 1509 Кбит/сек
Каналы : 8 каналов / 6 каналов
Расположение каналов : Front: L C R, Side: L R, Back: L R, LFE / Front: L C R, Side: L R, LFE
Частота : 48,0 КГц
Частота кадров : 93,750 кадра/сек (512 spf)
Битовая глубина : 24 бит
Метод сжатия : Без потерь / Lossy
Размер потока : 2,72 Гбайт (13%)
Заголовок : Cantonese
Язык : Chinese
Default : Нет
Forced : Нет
Аудио #3
Идентификатор : 4
Формат : AC-3
Формат/Информация : Audio Coding 3
Расширение режима : CM (complete main)
Параметр Endianness формата : Big
Идентификатор кодека : A_AC3
Продолжительность : 1 ч. 32 м.
Вид битрейта : Постоянный
Битрейт : 640 Кбит/сек
Каналы : 6 каналов
Расположение каналов : Front: L C R, Side: L R, LFE
Частота : 48,0 КГц
Частота кадров : 31,250 кадров/сек (1536 spf)
Метод сжатия : С потерями
Размер потока : 425 Мбайт (2%)
Заголовок : Mandarin
Язык : Chinese
Default : Нет
Forced : Нет
Текст
Идентификатор : 5
Формат : UTF-8
Идентификатор кодека : S_TEXT/UTF8
Идентификатор кодека/Информация : UTF-8 Plain Text
Продолжительность : 1 ч. 28 м.
Битрейт : 43 бит/сек
Count of elements : 961
Размер потока : 28,1 Кбайт (0%)
Заголовок : Subtitle eng
Язык : English
Default : Нет
Forced : Нет
Меню
00:00:00.000 : en:00:00:00.000
00:03:59.000 : en:00:03:59.000
00:12:33.042 : en:00:12:33.042
00:17:23.708 : en:00:17:23.708
00:23:01.708 : en:00:23:01.708
00:27:30.208 : en:00:27:30.208
00:31:04.708 : en:00:31:04.708
00:36:45.250 : en:00:36:45.250
00:39:45.500 : en:00:39:45.500
00:43:14.292 : en:00:43:14.292
00:46:22.208 : en:00:46:22.208
00:50:40.625 : en:00:50:40.625
00:56:43.875 : en:00:56:43.875
01:03:26.125 : en:01:03:26.125
01:06:21.625 : en:01:06:21.625
01:10:57.542 : en:01:10:57.542
01:14:37.292 : en:01:14:37.292
01:19:54.542 : en:01:19:54.542
01:23:28.667 : en:01:23:28.667
01:29:02.125 : en:01:29:02.125

Скриншоты

[Профиль] [ЛС]
Показать сообщения:    

Текущее время: Сегодня 05:20

Часовой пояс: GMT



Вы не можете начинать темы
Вы не можете отвечать на сообщения
Вы не можете редактировать свои сообщения
Вы не можете удалять свои сообщения
Вы не можете голосовать в опросах
Вы не можете прикреплять файлы к сообщениям
Вы не можете скачивать файлы