Совокупность лжи / Body of Lies (Ридли Скотт / Ridley Scott) [2008, США, Великобритания, боевик, триллер, драма, BDRip-AVC] 3x AVO (Гаврилов, Сербин, Дольский)

 
Автор Сообщение

TorrentFilm ®

Пол:

Стаж: 1 год 11 месяцев

Сообщений: 7741



Награды: Нет

Торрент-статистика

Создавать темы 17-Дек-2015 00:10

[Цитировать]

Совокупность лжи / Body of Lies Страна: США, Великобритания
Жанр: боевик, триллер, драма
Год выпуска: 2008
Продолжительность: 02:08:19
Перевод 1: Авторский (одноголосый закадровый) Андрей Гаврилов
Перевод 2: Авторский (одноголосый закадровый) Юрий Сербин
Перевод 3: Авторский (одноголосый закадровый) Андрей Дольский
Cубтитры: нет
Режиссер: Ридли Скотт / Ridley Scott
В ролях: Леонардо ДиКаприо, Рассел Кроу, Марк Стронг, Голшифт Фарахани, Оскар Айзек, Али Сулимэн, Алон Абутбул, Винс Колосимо, Саймон МакБерни, Мехди Неббу
Описание: ЦРУ охотится на руководителя серии террористических атак. Роджер Феррис является агентом национальной разведки, он перемещается по всему свету, пытаясь предотвратить любые нежелательные события. Око в небе, спутник, наблюдает за ним. На другом конце этой связи ветеран ЦРУ Эд Хоффман, который отслеживает события издалека.
Чем ближе подбирается Феррис к своей цели, тем явственнее понимает, что доверие — это одновременно и опасная штука, и то единственное, что позволит ему остаться в живых.

Доп.инфо: в переводе Сербина присутствует ненормативная лексика
Качество видео: BDRip-AVC
Формат видео: MKV
Видео кодек: H264
Аудио кодек: AC3
Видео: 1032x430 (2.40:1), 23.976 fps, ~1898 kbps avg, 0.178 bit/pixel
Аудио#1: 48 kHz, AC3 Dolby Digital, 3/2 (L,C,R,l,r) + LFE ch, ~448 kbps - Гаврилов
Аудио#2: 48 kHz, AC3 Dolby Digital, 3/2 (L,C,R,l,r) + LFE ch, ~448 kbps - Сербин
Аудио#2: 48 kHz, AC3 Dolby Digital, 3/2 (L,C,R,l,r) + LFE ch, ~448 kbps - Дольский

Доп.инфоза видеоряд спасибо [b][color=green]potroks[/color] HELLYWOOD[/b]MediaInfo

Complete name : Совокупность лжи.mkv
Format : Matroska
Format version : Version 4 / Version 2
File size : 2.91 GiB
Duration : 2h 8mn
Overall bit rate : 3 244 Kbps
Encoded date : UTC 2015-12-15 09:39:12
Writing application : mkvmerge v8.3.0 ('Over the Horizon') 64bit
Writing library : libebml v1.3.1 + libmatroska v1.4.2
DURATION : 02:08:19.168000000
NUMBER_OF_FRAMES : 240599
NUMBER_OF_BYTES : 431153408
_STATISTICS_WRITING_APP : mkvmerge v8.3.0 ('Over the Horizon') 64bit
_STATISTICS_WRITING_DATE_UT : 2015-12-15 09:39:12
_STATISTICS_TAGS : BPS DURATION NUMBER_OF_FRAMES NUMBER_OF_BYTES
Video
ID : 1
Format : AVC
Format/Info : Advanced Video Codec
Format profile : High@L4.1
Format settings, CABAC : Yes
Format settings, ReFrames : 10 frames
Codec ID : V_MPEG4/ISO/AVC
Duration : 2h 8mn
Bit rate : 1 898 Kbps
Width : 1 032 pixels
Height : 430 pixels
Display aspect ratio : 2.40:1
Frame rate mode : Constant
Frame rate : 23.976 fps
Color space : YUV
Chroma subsampling : 4:2:0
Bit depth : 8 bits
Scan type : Progressive
Bits/(Pixel*Frame) : 0.178
Stream size : 1.64 GiB (57%)
Writing library : x264 core 130 r2273 b3065e6
Encoding settings : cabac=1 / ref=10 / deblock=1:-2:-2 / analyse=0x3:0x133 / me=umh / subme=11 / psy=1 / psy_rd=1.03:0.00 / mixed_ref=1 / me_range=32 / chroma_me=1 / trellis=2 / 8x8dct=1 / cqm=0 / deadzone=21,11 / fast_pskip=0 / chroma_qp_offset=-2 / threads=6 / lookahead_threads=6 / sliced_threads=0 / nr=0 / decimate=0 / interlaced=0 / bluray_compat=0 / constrained_intra=0 / bframes=11 / b_pyramid=2 / b_adapt=2 / b_bias=0 / direct=3 / weightb=1 / open_gop=0 / weightp=2 / keyint=250 / keyint_min=23 / scenecut=40 / intra_refresh=0 / rc_lookahead=60 / rc=2pass / mbtree=0 / bitrate=1898 / ratetol=1.0 / qcomp=0.70 / qpmin=0 / qpmax=69 / qpstep=4 / cplxblur=20.0 / qblur=0.5 / vbv_maxrate=20000 / vbv_bufsize=20000 / nal_hrd=none / ip_ratio=1.35 / pb_ratio=1.25 / aq=1:0.70
Language : English
Default : Yes
Forced : No
DURATION : 02:08:18.120000000
NUMBER_OF_FRAMES : 184570
NUMBER_OF_BYTES : 1826125767
_STATISTICS_WRITING_APP : mkvmerge v8.3.0 ('Over the Horizon') 64bit
_STATISTICS_WRITING_DATE_UT : 2015-12-15 09:39:12
_STATISTICS_TAGS : BPS DURATION NUMBER_OF_FRAMES NUMBER_OF_BYTES
Audio #1
ID : 2
Format : AC-3
Format/Info : Audio Coding 3
Mode extension : CM (complete main)
Format settings, Endianness : Big
Codec ID : A_AC3
Duration : 2h 8mn
Bit rate mode : Constant
Bit rate : 448 Kbps
Channel(s) : 6 channels
Channel positions : Front: L C R, Side: L R, LFE
Sampling rate : 48.0 KHz
Compression mode : Lossy
Stream size : 411 MiB (14%)
Title : Гаврилов
Language : Russian
Default : Yes
Forced : No
Audio #2
ID : 3
Format : AC-3
Format/Info : Audio Coding 3
Mode extension : CM (complete main)
Format settings, Endianness : Big
Codec ID : A_AC3
Duration : 2h 8mn
Bit rate mode : Constant
Bit rate : 448 Kbps
Channel(s) : 6 channels
Channel positions : Front: L C R, Side: L R, LFE
Sampling rate : 48.0 KHz
Compression mode : Lossy
Stream size : 411 MiB (14%)
Title : Сербин
Language : Russian
Default : No
Forced : No
Audio #3
ID : 4
Format : AC-3
Format/Info : Audio Coding 3
Mode extension : CM (complete main)
Format settings, Endianness : Big
Codec ID : A_AC3
Duration : 2h 8mn
Bit rate mode : Constant
Bit rate : 448 Kbps
Channel(s) : 6 channels
Channel positions : Front: L C R, Side: L R, LFE
Sampling rate : 48.0 KHz
Compression mode : Lossy
Stream size : 411 MiB (14%)
Title : Дольский
Language : Russian
Default : No
Forced : No

Скриншоты

[Профиль] [ЛС]

Создавать темы 12-Июн-2016 08:50 (спустя 5 месяцев 26 дней)

Топик был перенесен из форума Фильмы 2011 года в форум Фильмы 2006-2008 года
Russian Mafia
 
Показать сообщения:    

Текущее время: Сегодня 20:02

Часовой пояс: GMT



Вы не можете начинать темы
Вы не можете отвечать на сообщения
Вы не можете редактировать свои сообщения
Вы не можете удалять свои сообщения
Вы не можете голосовать в опросах
Вы не можете прикреплять файлы к сообщениям
Вы не можете скачивать файлы