Совместная поездка / Ride Along (2014) BDRip 1080p | Лицензия

 
Автор Сообщение

Russian Mafia ®

Пол:

Стаж: 1 год 8 месяцев

Сообщений: 4256



Награды: 10 (Подробнее)

Mega Seeder 2 (Количество: 1) Top Releaser 3 (Количество: 1) Top Releaser 2 (Количество: 1)
Торрент-статистика

Создавать темы 26-Сен-2015 18:01

[Цитировать]

Информация о фильме:
Название: Совместная поездка
Оригинальное название: Ride Along
Год выхода: 2013
Жанр: боевик, комедия, ...
Режиссер: Тим Стори
В ролях: Айс Кьюб, Кевин Харт, Лоренс Фишбёрн, Джон Легуизамо, Брюс МакГилл, Тика Самптер, Брайан Коллен, Драгош Букур, Гари Оуэн, Джейкоб Латимор
О фильме:
Вот уже два года охранник средней школы Бен только то и делает, что пытается доказать опытному детективу Джеймсу, что достоин его сестры Анджелы, своей будущей невесты. На этот раз, как следует из фильма «Совместная поездка» (Ride Along), он предпринимает очередной шаг, что влечет за собой самые сумасшедшие 24 часа в его жизни. Когда Бен, наконец, принят в полицейскую академию, он думает, что наконец-то заслужил руку и сердце Анджелы, и просит согласия будущего шурина на свадьбу. А тот, в свою очередь, приглашает героя кинокартины «Совместная поездка» отправиться вместе в рейд по городу. Но когда безумная ночь приведет их к самому печально известному бандиту в городе, Джеймс поймет, что слишком болтливый язык его нового напарника так же опасен, как и смертоносные пули.

Страна: США
Продолжительность: 01:39:31
Перевод: Профессиональный (полное дублирование) CEE
Субтитры: Русские (полные, форсированные), английские (обычные, SDH, SDH-Colored)
Дополнительно: Сохранены оригинальные чаптеры как на Blu-Ray
Файл:
Формат: MKV
Качество: BDRip 1080p (источник: HDCLUB / Blu-Ray CEE / 1080р)
Видео: MPEG-4 AVC, 7500 Кбит/с, 1920x800, 23.976 кадр/с
Аудио: AC3 Dolby Digital, 3/2 (L,C,R,l,r) + LFE ch, ~448 kbps (RUS)
Аудио: AC3 Dolby Digital, 3/2 (L,C,R,l,r) + LFE ch, ~384 kbps (ENG)--

M/I

x264 info: frame I:1352 Avg QP:16.83 size:208670
x264 info: frame P:34534 Avg QP:18.98 size: 70242
x264 info: frame B:107286 Avg QP:20.58 size: 26910
x264 info: consecutive B-frames: 3.3% 4.2% 15.4% 14.3% 17.6% 41.6% 2.6% 0.5% 0.5%
==============================================================
General
Unique ID : 182535291579043388844846767139049562343 (0x895304B598E29FE89D5748A2CDB5E0E7)
Complete name : F:FILMSСовместная поездка.(2014).BLU-RAY.180p.[-=DoMiNo=-].mkv
Format : Matroska
Format version : Version 4 / Version 2
File size : 5.79 GiB
Duration : 1h 39mn
Overall bit rate : 8 331 Kbps
Movie name : Совместная поездка.(2014).BLU-RAY.180p.[-=DoMiNo=-]
Encoded date : UTC 2015-09-26 14:36:14
Writing application : mkvmerge v8.4.0 ('A better way to fly') 64bit
Writing library : libebml v1.3.1 + libmatroska v1.4.2
DURATION : 01:35:01.661000000
NUMBER_OF_FRAMES : 2281
NUMBER_OF_BYTES : 74133
_STATISTICS_WRITING_APP : mkvmerge v8.4.0 ('A better way to fly') 64bit
_STATISTICS_WRITING_DATE_UT : 2015-09-26 14:36:14
_STATISTICS_TAGS : BPS DURATION NUMBER_OF_FRAMES NUMBER_OF_BYTES
Video
ID : 1
Format : AVC
Format/Info : Advanced Video Codec
Format profile : High@L4.1
Format settings, CABAC : Yes
Format settings, ReFrames : 5 frames
Codec ID : V_MPEG4/ISO/AVC
Duration : 1h 39mn
Bit rate : 7 500 Kbps
Width : 1 920 pixels
Height : 800 pixels
Display aspect ratio : 2.40:1
Frame rate mode : Constant
Frame rate : 23.976 fps
Color space : YUV
Chroma subsampling : 4:2:0
Bit depth : 8 bits
Scan type : Progressive
Bits/(Pixel*Frame) : 0.204
Stream size : 5.10 GiB (88%)
Title : Совместная поездка
Writing library : x264 core 148 r2597M e86f3a1
Encoding settings : cabac=1 / ref=5 / deblock=1:-3:-3 / analyse=0x3:0x113 / me=umh / subme=11 / psy=1 / psy_rd=1.00:0.50 / mixed_ref=1 / me_range=32 / chroma_me=1 / trellis=2 / 8x8dct=1 / cqm=0 / deadzone=21,11 / fast_pskip=0 / chroma_qp_offset=-4 / threads=5 / lookahead_threads=1 / sliced_threads=0 / nr=0 / decimate=1 / interlaced=0 / bluray_compat=0 / constrained_intra=0 / bframes=8 / b_pyramid=2 / b_adapt=2 / b_bias=0 / direct=3 / weightb=1 / open_gop=0 / weightp=2 / keyint=230 / keyint_min=23 / scenecut=40 / intra_refresh=0 / rc=2pass / mbtree=0 / bitrate=7500 / ratetol=1.0 / qcomp=0.60 / qpmin=0 / qpmax=69 / qpstep=4 / cplxblur=20.0 / qblur=0.5 / ip_ratio=1.40 / pb_ratio=1.30 / aq=1:1.00
Language : English
Default : Yes
Forced : No
DURATION : 01:39:31.466000000
NUMBER_OF_FRAMES : 143172
NUMBER_OF_BYTES : 5594983440
_STATISTICS_WRITING_APP : mkvmerge v8.4.0 ('A better way to fly') 64bit
_STATISTICS_WRITING_DATE_UT : 2015-09-26 14:36:14
_STATISTICS_TAGS : BPS DURATION NUMBER_OF_FRAMES NUMBER_OF_BYTES
Audio #1
ID : 2
Format : AC-3
Format/Info : Audio Coding 3
Mode extension : CM (complete main)
Format settings, Endianness : Big
Codec ID : A_AC3
Duration : 1h 39mn
Bit rate mode : Constant
Bit rate : 448 Kbps
Channel(s) : 6 channels
Channel positions : Front: L C R, Side: L R, LFE
Sampling rate : 48.0 KHz
Compression mode : Lossy
Delay relative to video : 27ms
Stream size : 319 MiB (5%)
Title : Профессиональный (полное дублирование) CEE
Language : Russian
Default : Yes
Forced : No
DURATION : 01:39:31.456000000
NUMBER_OF_FRAMES : 186608
NUMBER_OF_BYTES : 334401536
_STATISTICS_WRITING_APP : mkvmerge v8.4.0 ('A better way to fly') 64bit
_STATISTICS_WRITING_DATE_UT : 2015-09-26 14:36:14
_STATISTICS_TAGS : BPS DURATION NUMBER_OF_FRAMES NUMBER_OF_BYTES
Audio #2
ID : 3
Format : AC-3
Format/Info : Audio Coding 3
Mode extension : CM (complete main)
Format settings, Endianness : Big
Codec ID : A_AC3
Duration : 1h 39mn
Bit rate mode : Constant
Bit rate : 384 Kbps
Channel(s) : 6 channels
Channel positions : Front: L C R, Side: L R, LFE
Sampling rate : 48.0 KHz
Compression mode : Lossy
Stream size : 273 MiB (5%)
Title : ENG
Language : English
Default : No
Forced : No
Text #1
ID : 4
Format : UTF-8
Codec ID : S_TEXT/UTF8
Codec ID/Info : UTF-8 Plain Text
Title : RUS.FORCED
Default : Yes
Forced : No
Text #2
ID : 5
Format : UTF-8
Codec ID : S_TEXT/UTF8
Codec ID/Info : UTF-8 Plain Text
Title : RUS
Default : No
Forced : No
Text #3
ID : 6
Format : UTF-8
Codec ID : S_TEXT/UTF8
Codec ID/Info : UTF-8 Plain Text
Title : ENG.SDH.COLORED
Default : No
Forced : No
Text #4
ID : 7
Format : UTF-8
Codec ID : S_TEXT/UTF8
Codec ID/Info : UTF-8 Plain Text
Title : ENG.SDH
Default : No
Forced : No
Text #5
ID : 8
Format : UTF-8
Codec ID : S_TEXT/UTF8
Codec ID/Info : UTF-8 Plain Text
Title : ENG
Default : No
Forced : No
Menu
00:00:00.000 : :Глава 1
00:05:09.183 : :Глава 2
00:10:37.386 : :Глава 3
00:14:40.921 : :Глава 4
00:19:46.435 : :Глава 5
00:25:03.418 : :Глава 6
00:31:16.749 : :Глава 7
00:35:46.394 : :Глава 8
00:40:51.657 : :Глава 9
00:44:31.085 : :Глава 10
00:50:40.162 : :Глава 11
00:54:49.995 : :Глава 12
01:00:00.930 : :Глава 13
01:06:13.135 : :Глава 14
01:11:47.303 : :Глава 15
01:18:44.553 : :Глава 16
01:22:53.593 : :Глава 17
01:26:27.974 : :Глава 18
01:30:09.278 : :Глава 19
01:35:27.346 : :Глава 20
01:39:31.215 : :Глава 21
-- --
[Профиль] [ЛС]
Показать сообщения:    

Текущее время: Сегодня 12:47

Часовой пояс: GMT



Вы не можете начинать темы
Вы не можете отвечать на сообщения
Вы не можете редактировать свои сообщения
Вы не можете удалять свои сообщения
Вы не можете голосовать в опросах
Вы не можете прикреплять файлы к сообщениям
Вы не можете скачивать файлы