Совместная поездка / Ride Along (Тим Стори / Tim Story) [2014, США, Боевик, комедия, BDRip] Dub

 
Автор Сообщение

reversefile ®

Пол:

Стаж: 4 года 5 месяцев

Сообщений: 842

Откуда: ReverseFile.org



Награды: Нет

Торрент-статистика

Создавать темы 13-Авг-2014 08:54

[Цитировать]

Совместная поездка / Ride Along- Год выпуска: 2014
Выпущено: США / Universal Pictures
Жанр: боевик, комедия
Продолжительность: 01:39:38
Перевод: Профессиональный (полное дублирование) BD CEE
Cубтитры: нет-Режиссер:
Тим Стори / Tim Story-В ролях:
Айс Кьюб (James Payton), Кевин Харт (Ben Barber), Джон Легуизамо (Santiago), Брюс МакГилл (Lt. Brooks), Тика Самптер (Angela Payton), Брайан Коллен (Miggs), Лоренс Фишбёрн (Omar), Драгош Букур (Marko), Гари Оуэн (Crazy Cody), Джейкоб Латимор (Ramon), Джей Фэро (Runflat)-Описание:
Охранник Бен отправляется вместе со своим шурином Джеймсом в патруль по Атланте, чтобы доказать, что он достоин жениться на Анджеле, сестре Джеймса.-Релиз группы | IMDB | КиноПоиск | Сэмпл |-Качество: BDRip [BDRemux / Кинозал]
Формат: AVI
Видео: 720x304 (2.37:1), 23.976 fps, XviD build 73 ~1700 kbps avg, 0.32 bit/pixel
Аудио: 48 kHz, AC3 Dolby Digital, 3/2 (L,C,R,l,r) + LFE ch, ~384.00 kbps avg
-

Скриншоты

MediaInfo

General
Complete name                            : D:\Sovmestnaya_poezdka_2014_BDRip_CEE_by_Dalemake.avi
Format                                   : AVI
Format/Info                              : Audio Video Interleave
File size                                : 1.46 GiB
Duration                                 : 1h 39mn
Overall bit rate                         : 2 094 Kbps
Writing application                      : VirtualDubMod 1.5.10.3 | www.virtualdub-fr.org || (build 2550/release)
Writing library                          : VirtualDubMod build 2550/release
Video
ID                                       : 0
Format                                   : MPEG-4 Visual
Format profile                           : Advanced Simple@L5
Format settings, BVOP                    : 1
Format settings, QPel                    : No
Format settings, GMC                     : No warppoints
Format settings, Matrix                  : Custom
Codec ID                                 : XVID
Codec ID/Hint                            : XviD
Duration                                 : 1h 39mn
Bit rate                                 : 1 701 Kbps
Width                                    : 720 pixels
Height                                   : 304 pixels
Display aspect ratio                     : 2.35:1
Frame rate                               : 23.976 fps
Color space                              : YUV
Chroma subsampling                       : 4:2:0
Bit depth                                : 8 bits
Scan type                                : Progressive
Compression mode                         : Lossy
Bits/(Pixel*Frame)                       : 0.324
Stream size                              : 1.18 GiB (81%)
Writing library                          : XviD 73
Audio
ID                                       : 1
Format                                   : AC-3
Format/Info                              : Audio Coding 3
Mode extension                           : CM (complete main)
Format settings, Endianness              : Big
Codec ID                                 : 2000
Duration                                 : 1h 39mn
Bit rate mode                            : Constant
Bit rate                                 : 384 Kbps
Channel(s)                               : 6 channels
Channel positions                        : Front: L C R, Side: L R, LFE
Sampling rate                            : 48.0 KHz
Bit depth                                : 16 bits
Compression mode                         : Lossy
Stream size                              : 273 MiB (18%)
Alignment                                : Split accross interleaves
Interleave, duration                     : 42 ms (1.00 video frame)
Interleave, preload duration             : 500 ms
-
[Профиль] [ЛС]
Показать сообщения:    

Текущее время: Сегодня 04:46

Часовой пояс: GMT



Вы не можете начинать темы
Вы не можете отвечать на сообщения
Вы не можете редактировать свои сообщения
Вы не можете удалять свои сообщения
Вы не можете голосовать в опросах
Вы не можете прикреплять файлы к сообщениям
Вы не можете скачивать файлы