Совместная поездка / Ride Along (Тим Стори / Tim Story) [2014 г., США, боевик, комедия, BDRip] Dub + Original + Sub (Rus, Eng)

 
Автор Сообщение

Создавать темы 13-Июл-2014 16:35

Совместная поездкаRide Along-«Propose to this cop's sister? Rookie mistake»- Год выпуска: 2014
Страна: США-Жанр: боевик, комедия
Продолжительность: 01:39:31
Перевод: Профессиональный (полное дублирование)
Субтитры: русские, английские-Режиссер: Тим Стори / Tim Story
Сценарий: Грег Кулидж / Greg Coolidge, Джейсон Манцукас / Jason Mantzoukas, Фил Хэй / Phil Hay, Мэтт Манфреди / Matt Manfredi
Продюсер: Мэтт Альварес / Matt Alvarez, Ларри Брэзнер / Larry Brezner, Айс Кьюб / Ice Cube, Уильям Пэкер / William Packer, Дайян Эшфорд / Dianne Ashford
Оператор: Ларри Блэнфорд / Larry Blanford
Композитор: Кристофер Леннерц / Christopher Lennertz-В ролях: Айс Кьюб (James Payton), Кевин Харт (Ben Barber), Джон Легуизамо (Santiago), Брюс МакГилл (Lt. Brooks), Тика Самптер (Angela Payton), Брайан Коллен (Miggs), Лоренс Фишбёрн (Omar), Драгош Букур (Marko), Гари Оуэн (Crazy Cody), Джейкоб Латимор (Ramon), Джей Фэро (Runflat), Бенжамин Флорес мл. (Morris the Kid)
Дублёры: Юрий Деркач (James Payton), Андрей Бархударов (Ben Barber), Иван Калинин (Santiago), Петр Тобилевич (Lt. Brooks), Полина Щербакова (Angela Payton), Александр Носков (Miggs), Денис Беспалый (Omar), Анастасия Лапина (Dispatcher Gina; Gun Shop Val), Радик Мухаметзянов (Dr. Cowan)-Описание: Охранник Бен отправляется вместе со своим шурином Джеймсом в патруль по Атланте, чтобы доказать, что он достоин жениться на Анджеле, сестре Джеймса.-kinopoisk.ru: 6.206 (3085)
imdb.com: 6.20 (32 891)
MPAA: PG-13 - Детям до 13 лет просмотр не желателен-Качество: BDRip / BDRemux
Контейнер: AVI
Видео: 720x304 (2.37:1), 23.976 fps, XviD MPEG-4 ~2230 kbps avg, 0.42 bit/pixel
Аудио: 48 kHz, AC3 Dolby Digital, 3/2 (L,C,R,l,r) + LFE ch, ~448 kbps (Rus)
Аудио: 48 kHz, AC3 Dolby Digital, 3/2 (L,C,R,l,r) + LFE ch, ~448 kbps (Eng)-

MediaInfo

General
Complete name                            : E:\Рипы\Ride.Along.BDRip.MVO.All.Films\Ride.Along.BDRip.MVO.All.Films.avi
Format                                   : AVI
Format/Info                              : Audio Video Interleave
Format profile                           : OpenDML
File size                                : 2.18 GiB
Duration                                 : 1h 39mn
Overall bit rate                         : 3 133 Kbps
Movie name                               : Ride.Along.BDRip.MVO.All.Films
Director                                 : DIABLO93
Genre                                    : Action/Comedy
Writing application                      : VirtualDubMod 1.5.10.3 | www.virtualdub-fr.org || (build 2550/release)
Original source form/Name                : Movie
Copyright                                : Rutracker.org (R.G. All Films)
Video
ID                                       : 0
Format                                   : MPEG-4 Visual
Format profile                           : Advanced Simple@L5
Format settings, BVOP                    : 2
Format settings, QPel                    : No
Format settings, GMC                     : No warppoints
Format settings, Matrix                  : Custom
Codec ID                                 : XVID
Codec ID/Hint                            : XviD
Duration                                 : 1h 39mn
Bit rate                                 : 2 220 Kbps
Width                                    : 720 pixels
Height                                   : 304 pixels
Display aspect ratio                     : 2.35:1
Frame rate                               : 23.976 fps
Color space                              : YUV
Chroma subsampling                       : 4:2:0
Bit depth                                : 8 bits
Scan type                                : Progressive
Compression mode                         : Lossy
Bits/(Pixel*Frame)                       : 0.423
Stream size                              : 1.54 GiB (71%)
Writing library                          : XviD 65
Audio #1
ID                                       : 1
Format                                   : AC-3
Format/Info                              : Audio Coding 3
Mode extension                           : CM (complete main)
Format settings, Endianness              : Big
Codec ID                                 : 2000
Duration                                 : 1h 39mn
Bit rate mode                            : Constant
Bit rate                                 : 448 Kbps
Channel(s)                               : 6 channels
Channel positions                        : Front: L C R, Side: L R, LFE
Sampling rate                            : 48.0 KHz
Bit depth                                : 16 bits
Compression mode                         : Lossy
Stream size                              : 319 MiB (14%)
Alignment                                : Split accross interleaves
Interleave, duration                     : 42 ms (1.00 video frame)
Interleave, preload duration             : 500 ms
Audio #2
ID                                       : 2
Format                                   : AC-3
Format/Info                              : Audio Coding 3
Mode extension                           : CM (complete main)
Format settings, Endianness              : Big
Codec ID                                 : 2000
Duration                                 : 1h 39mn
Bit rate mode                            : Constant
Bit rate                                 : 448 Kbps
Channel(s)                               : 6 channels
Channel positions                        : Front: L C R, Side: L R, LFE
Sampling rate                            : 48.0 KHz
Bit depth                                : 16 bits
Compression mode                         : Lossy
Stream size                              : 319 MiB (14%)
Alignment                                : Split accross interleaves
Interleave, duration                     : 42 ms (1.00 video frame)
Interleave, preload duration             : 500 ms

-

Сэмпл[url=http://multi-up.com/985539][color=indigo][font="Georgia

Скачать[/url]Скриншоты"]
Релиз группы:
-
 
Показать сообщения:    

Текущее время: Сегодня 05:17

Часовой пояс: GMT



Вы не можете начинать темы
Вы не можете отвечать на сообщения
Вы не можете редактировать свои сообщения
Вы не можете удалять свои сообщения
Вы не можете голосовать в опросах
Вы не можете прикреплять файлы к сообщениям
Вы не можете скачивать файлы