Советник / The Counselor (2013) BDRip 1080p | Extended Cut | Лицензия

 
Автор Сообщение

Russian Mafia ®

Пол:

Стаж: 1 год 8 месяцев

Сообщений: 4253



Награды: 10 (Подробнее)

Mega Seeder 3 (Количество: 1) Top Releaser 4 (Количество: 1) За внесенный вклад в развитие сайта (Количество: 1)
Торрент-статистика

Создавать темы 10-Сен-2015 11:25

[Цитировать]

Информация о фильме
Название: Советник
Оригинальное название: The Counselor
Год выпуска: 2013
Жанр: Триллер, драма, криминал
Выпущено: США, Великобритания, киностудия
Режиссер: Ридли Скотт
В ролях: Майкл Фассбендер, Пенелопа Крус, Кэмерон Диаз, Хавьер Бардем, Брэд Питт, Бруно Ганц, Рози Перес, Тоби Кеббелл, Эмма Ригби, Эдгар Рамирес
О фильме: Успешный адвокат, стоящий практически на вершине успеха и на пороге собственной свадьбы, из любопытства и, конечно, ради денег соглашается на предложение своего давнего знакомого, имеющего тесные связи с преступным миром, перевезти из Мексики в США партию кокаина стоимостью 20 млн. долл.

Файл
Качество: BDRip (1080p)
Видео: MPEG-4 AVC, 6999 Кбит/с, 1920x800, 23.976 кадр/с
Аудио: Русский (AC3, 6 ch, 448 Кбит/с), (DTS, 6 ch, 755 Кбит/с), английский (DTS, 6 ch, 1509 Кбит/с)
Размер: 9.36 ГБ
Продолжительность: 02:17:56
Перевод: Дублированный
Субтитры: Русские, латышские, литовские, эстонские, украинские, английские
• Расширенные места, переведены форсированными субтитрами!
Сохранены оригинальные чаптеры как на Blu-Ray

x264

x264 [info]: frame I:1408 Avg QP:14.45 size:204633
x264 [info]: frame P:43879 Avg QP:17.07 size: 74122
x264 [info]: frame B:153147 Avg QP:18.43 size: 24130
x264 [info]: consecutive B-frames: 1.9% 2.9% 9.8% 18.3% 23.1% 33.0% 7.4% 1.4% 1.0% 1.2%
x264 [info]: mb I I16..4: 19.6% 62.9% 17.5%
x264 [info]: mb P I16..4: 2.1% 17.6% 1.2% P16..4: 29.8% 33.0% 8.2% 2.2% 0.1% skip: 5.8%
x264 [info]: mb B I16..4: 0.3% 1.0% 0.1% B16..8: 36.3% 20.1% 2.9% direct: 7.3% skip:32.0% L0:44.0% L1:43.5% BI:12.4%
x264 [info]: 8x8 transform intra:80.2% inter:53.1%
x264 [info]: direct mvs spatial:98.9% temporal:1.1%
x264 [info]: coded y,uvDC,uvAC intra: 86.5% 88.3% 76.1% inter: 26.1% 36.7% 17.8%
x264 [info]: i16 v,h,dc,p: 31% 11% 13% 45%
x264 [info]: i8 v,h,dc,ddl,ddr,vr,hd,vl,hu: 9% 9% 13% 10% 12% 12% 11% 12% 13%
x264 [info]: i4 v,h,dc,ddl,ddr,vr,hd,vl,hu: 16% 12% 15% 7% 11% 11% 10% 8% 10%
x264 [info]: i8c dc,h,v,p: 53% 19% 15% 13%
x264 [info]: Weighted P-Frames: Y:6.1% UV:3.5%
x264 [info]: ref P L0: 47.2% 8.7% 25.3% 8.5% 9.2% 0.9% 0.1%
x264 [info]: ref B L0: 74.6% 18.6% 5.1% 1.7%
x264 [info]: ref B L1: 92.7% 7.3%
x264 [info]: kb/s:6994.35

Инфо-файл

Общее
Уникальный идентификатор : 250715131732530387410105425612162949022 (0xBC9DFA5C568B8334BF48256E373B5F9E)
Полное имя : D:ЗагрузкиThe.Counselor.2013.(Extended.Cut).x264.BDRip.(1080p).ExKinoRay.mkv
Формат : Matroska
Версия формата : Version 2
Размер файла : 9,36 Гбайт
Продолжительность : 2 ч. 17 м.
Общий поток : 9710 Кбит/сек
Название фильма : Советник.(Расширенная версия).2013.Rip by: ollan
Дата кодирования : UTC 2015-06-28 11:07:04
Программа кодирования : mkvmerge v5.6.0 ('Kenya Kane') built on May 27 2012 16:44:04
Библиотека кодирования : libebml v1.2.3 + libmatroska v1.3.0
Видео
Идентификатор : 1
Формат : AVC
Формат/Информация : Advanced Video Codec
Профиль формата : High@L4.1
Параметр CABAC формата : Да
Параметр ReFrames формата : 5 кадров
Идентификатор кодека : V_MPEG4/ISO/AVC
Продолжительность : 2 ч. 17 м.
Битрейт : 6999 Кбит/сек
Ширина : 1920 пикселей
Высота : 800 пикселей
Соотношение сторон : 2,40:1
Режим частоты кадров : Постоянный
Частота кадров : 23,976 кадра/сек
Цветовое пространство : YUV
Субдискретизация насыщенности : 4:2:0
Битовая глубина : 8 бит
Тип развёртки : Прогрессивная
Бит/(Пиксели*Кадры) : 0.190
Размер потока : 6,56 Гбайт (70%)
Библиотека кодирования : x264 core 125 r2200 999b753
Настройки программы : cabac=1 / ref=5 / deblock=1:-3:-3 / analyse=0x3:0x133 / me=umh / subme=11 / psy=1 / psy_rd=1.00:0.10 / mixed_ref=1 / me_range=32 / chroma_me=1 / trellis=2 / 8x8dct=1 / cqm=0 / deadzone=21,11 / fast_pskip=0 / chroma_qp_offset=-3 / threads=12 / lookahead_threads=2 / sliced_threads=0 / nr=0 / decimate=0 / interlaced=0 / bluray_compat=0 / constrained_intra=0 / bframes=9 / b_pyramid=2 / b_adapt=2 / b_bias=0 / direct=3 / weightb=1 / open_gop=0 / weightp=2 / keyint=240 / keyint_min=23 / scenecut=40 / intra_refresh=0 / rc=2pass / mbtree=0 / bitrate=6999 / ratetol=1.0 / qcomp=0.60 / qpmin=0 / qpmax=69 / qpstep=4 / cplxblur=20.0 / qblur=0.5 / ip_ratio=1.40 / pb_ratio=1.30 / aq=1:1.00
Язык : English
Default : Да
Forced : Нет
Аудио #1
Идентификатор : 2
Формат : AC-3
Формат/Информация : Audio Coding 3
Расширение режима : CM (complete main)
Параметр Endianness формата : Big
Идентификатор кодека : A_AC3
Продолжительность : 2 ч. 17 м.
Вид битрейта : Постоянный
Битрейт : 448 Кбит/сек
Каналы : 6 каналов
Расположение каналов : Front: L C R, Side: L R, LFE
Частота : 48,0 КГц
Битовая глубина : 16 бит
Метод сжатия : С потерями
Размер потока : 442 Мбайт (5%)
Заголовок : Дублированный (Лицензия)
Язык : Russian
Default : Да
Forced : Нет
Аудио #2
Идентификатор : 3
Формат : DTS
Формат/Информация : Digital Theater Systems
Режим : 16
Параметр Endianness формата : Big
Идентификатор кодека : A_DTS
Продолжительность : 2 ч. 17 м.
Вид битрейта : Постоянный
Битрейт : 755 Кбит/сек
Каналы : 6 каналов
Расположение каналов : Front: L C R, Side: L R, LFE
Частота : 48,0 КГц
Битовая глубина : 24 бит
Метод сжатия : С потерями
Размер потока : 744 Мбайт (8%)
Заголовок : Дублированный (Лицензия)
Язык : Russian
Default : Нет
Forced : Нет
Аудио #3
Идентификатор : 4
Формат : DTS
Формат/Информация : Digital Theater Systems
Режим : 16
Параметр Endianness формата : Big
Идентификатор кодека : A_DTS
Продолжительность : 2 ч. 17 м.
Вид битрейта : Постоянный
Битрейт : 1509 Кбит/сек
Каналы : 6 каналов
Расположение каналов : Front: L C R, Side: L R, LFE
Частота : 48,0 КГц
Битовая глубина : 24 бит
Метод сжатия : С потерями
Размер потока : 1,45 Гбайт (16%)
Язык : English
Default : Нет
Forced : Нет
Текст #1
Идентификатор : 5
Формат : UTF-8
Идентификатор кодека : S_TEXT/UTF8
Идентификатор кодека/Информация : UTF-8 Plain Text
Заголовок : Forced
Язык : Russian
Default : Да
Forced : Нет
Текст #2
Идентификатор : 6
Формат : UTF-8
Идентификатор кодека : S_TEXT/UTF8
Идентификатор кодека/Информация : UTF-8 Plain Text
Заголовок : Full
Язык : Russian
Default : Нет
Forced : Нет
Текст #3
Идентификатор : 7
Формат : UTF-8
Идентификатор кодека : S_TEXT/UTF8
Идентификатор кодека/Информация : UTF-8 Plain Text
Заголовок : Full
Язык : Latvian
Default : Нет
Forced : Нет
Текст #4
Идентификатор : 8
Формат : UTF-8
Идентификатор кодека : S_TEXT/UTF8
Идентификатор кодека/Информация : UTF-8 Plain Text
Заголовок : Full
Язык : Lithuanian
Default : Нет
Forced : Нет
Текст #5
Идентификатор : 9
Формат : UTF-8
Идентификатор кодека : S_TEXT/UTF8
Идентификатор кодека/Информация : UTF-8 Plain Text
Заголовок : Full
Язык : Estonian
Default : Нет
Forced : Нет
Текст #6
Идентификатор : 10
Формат : UTF-8
Идентификатор кодека : S_TEXT/UTF8
Идентификатор кодека/Информация : UTF-8 Plain Text
Заголовок : Full
Язык : Ukrainian
Default : Нет
Forced : Нет
Текст #7
Идентификатор : 11
Формат : UTF-8
Идентификатор кодека : S_TEXT/UTF8
Идентификатор кодека/Информация : UTF-8 Plain Text
Заголовок : Full
Язык : English
Default : Нет
Forced : Нет
Меню
00:00:00.000 : :Chapter 01
00:06:38.022 : :Chapter 02
00:09:47.086 : :Chapter 03
00:12:12.565 : :Chapter 04
00:19:50.606 : :Chapter 05
00:27:59.677 : :Chapter 06
00:31:31.973 : :Chapter 07
00:34:35.239 : :Chapter 08
00:37:13.856 : :Chapter 09
00:46:31.830 : :Chapter 10
00:50:45.876 : :Chapter 11
00:56:54.494 : :Chapter 12
00:58:13.448 : :Chapter 13
00:59:55.258 : :Chapter 14
01:02:37.628 : :Chapter 15
01:04:40.710 : :Chapter 16
01:10:51.371 : :Chapter 17
01:15:33.487 : :Chapter 18
01:17:44.033 : :Chapter 19
01:19:53.705 : :Chapter 20
01:25:41.302 : :Chapter 21
01:30:10.112 : :Chapter 22
01:34:25.783 : :Chapter 23
01:38:29.778 : :Chapter 24
01:41:34.838 : :Chapter 25
01:44:25.842 : :Chapter 26
01:46:19.372 : :Chapter 27
01:48:58.363 : :Chapter 28
01:51:45.907 : :Chapter 29
01:58:04.452 : :Chapter 30
01:59:36.252 : :Chapter 31
02:03:57.137 : :Chapter 32
02:05:26.310 : :Chapter 33
02:08:22.778 : :Chapter 34
02:10:27.944 : :Chapter 35
02:13:53.650 : :Chapter 36
02:17:56.100 : :Chapter 37

Скриншоты



[Профиль] [ЛС]
Кто просматривает тему:

Форум Тема Автор Размер
Cборники 70х-80х-90х (Ретро) (POP) VA - Антология советской эстрады 70-е годы - 2009, MP3, VBR 192-256 kbps Magnat 601 MB
Cборники 70х-80х-90х (Ретро) (POP) VA - Советские хиты 70-80-х - Как Молоды Мы Были - 2008, MP3, 128 kbps Magnat 674 MB
Cборники 70х-80х-90х (Ретро) (POP) VA Легенды советской эстрады 70-80 №6 - 2011, MP3, 320 kbps Magnat 831 MB
Other genres (Pop,Retro,Советская эстрада)VA - Сделано в С.С.С.Р. (Ретро сборник)(10CD)2007 - 2010 FLAC(Image+*cue), Lossless sergej644 3.86 GB
Cборники 70х-80х-90х (Ретро) (Pop,Retro,Советская эстрада)VA - Сделано в С.С.С.Р. (Ретро сборник)(10CD)2007 - 2010 MP3 (tracks), 320 kbps sergej644 1.53 GB
Music from other genres (Retro, Советская эстрада) VA - Золотые хиты ВИА (В.Добрынин) (4CD) - 2011 [FLAC, image+.cue, lossless] sergej644 2.99 GB
Сборники (Retro, Советская эстрада) VA - Золотые хиты ВИА (В.Добрынин) (4CD) - 2011 [MP3, tracks, 320 kbps] sergej644 1.49 GB
Music from other genres (Retro, Советская эстрада) VA - Кружатся Диски. ВИА 70-80-х годов - 1996 [WavPack, image +.cue, lossless] sergej644 400 MB
Показать сообщения:    

Текущее время: Сегодня 06:08

Часовой пояс: GMT



Вы не можете начинать темы
Вы не можете отвечать на сообщения
Вы не можете редактировать свои сообщения
Вы не можете удалять свои сообщения
Вы не можете голосовать в опросах
Вы не можете прикреплять файлы к сообщениям
Вы не можете скачивать файлы