Советник / The Counselor (2013) BDRemux 1080p | Extended Cut | Лицензия

 
Автор Сообщение

Russian Mafia ®

Пол:

Стаж: 1 год 8 месяцев

Сообщений: 4253



Награды: 10 (Подробнее)

Top Releaser 3 (Количество: 1) За внесенный вклад в развитие сайта (Количество: 1) Mega Seeder 3 (Количество: 1)
Торрент-статистика

Создавать темы 10-Сен-2015 11:24

[Цитировать]

Информация о фильме
Название: Советник
Оригинальное название: The Counselor
Год выпуска: 2013
Жанр: Триллер, драма, криминал
Выпущено: США, Великобритания, киностудия
Режиссер: Ридли Скотт
В ролях: Майкл Фассбендер, Пенелопа Крус, Кэмерон Диаз, Хавьер Бардем, Брэд Питт, Бруно Ганц, Рози Перес, Тоби Кеббелл, Эмма Ригби, Эдгар Рамирес
О фильме: Успешный адвокат, стоящий практически на вершине успеха и на пороге собственной свадьбы, из любопытства и, конечно, ради денег соглашается на предложение своего давнего знакомого, имеющего тесные связи с преступным миром, перевезти из Мексики в США партию кокаина стоимостью 20 млн. долл.

Файл
Качество: Blu-Ray Remux (1080p)
Видео: MPEG-4 AVC, 19854 Кбит/с, 1920x1080, 23.976 кадр/с
Аудио: Русский (AC3, 6 ch, 448 Кбит/с), (DTS, 6 ch, 755 Кбит/с), английский (DTS-HD MA, 6 ch, 3719 Кбит/с)
Размер: 23.78 ГБ
Продолжительность: 02:17:56
Перевод: Дублированный
Субтитры: Русские, латышские, литовские, эстонские, украинские, английские
• Расширенные места, переведены форсированными субтитрами!
Сохранены оригинальные чаптеры как на Blu-Ray

Инфо-файл

Общее
Уникальный идентификатор : 235336270182733673859921639316586342089 (0xB10C1DF20B027665A5E291A6A855A6C9)
Полное имя : D:ЗагрузкиThe.Counselor.2013.(Extended.Cut).BDRemux.(1080p.)ExKinoRay.mkv
Формат : Matroska
Версия формата : Version 2
Размер файла : 23,8 Гбайт
Продолжительность : 2 ч. 17 м.
Режим общего битрейта : Переменный
Общий поток : 24,7 Мбит/сек
Название фильма : Советник.(Расширенная версия).2013.Сборка: ollan
Дата кодирования : UTC 2015-06-24 17:46:33
Программа кодирования : mkvmerge v5.6.0 ('Kenya Kane') built on May 27 2012 16:44:04
Библиотека кодирования : libebml v1.2.3 + libmatroska v1.3.0
Видео
Идентификатор : 1
Формат : AVC
Формат/Информация : Advanced Video Codec
Профиль формата : High@L4.1
Параметр CABAC формата : Да
Параметр ReFrames формата : 4 кадра
Идентификатор кодека : V_MPEG4/ISO/AVC
Продолжительность : 2 ч. 17 м.
Вид битрейта : Переменный
Максимальный битрейт : 38,0 Мбит/сек
Ширина : 1920 пикселей
Высота : 1080 пикселей
Соотношение сторон : 16:9
Режим частоты кадров : Постоянный
Частота кадров : 23,976 кадра/сек
Цветовое пространство : YUV
Субдискретизация насыщенности : 4:2:0
Битовая глубина : 8 бит
Тип развёртки : Прогрессивная
Язык : English
Default : Да
Forced : Нет
Аудио #1
Идентификатор : 2
Формат : AC-3
Формат/Информация : Audio Coding 3
Расширение режима : CM (complete main)
Параметр Endianness формата : Big
Идентификатор кодека : A_AC3
Продолжительность : 2 ч. 17 м.
Вид битрейта : Постоянный
Битрейт : 448 Кбит/сек
Каналы : 6 каналов
Расположение каналов : Front: L C R, Side: L R, LFE
Частота : 48,0 КГц
Битовая глубина : 16 бит
Метод сжатия : С потерями
Размер потока : 442 Мбайт (2%)
Заголовок : Дублированный (Лицензия)
Язык : Russian
Default : Да
Forced : Нет
Аудио #2
Идентификатор : 3
Формат : DTS
Формат/Информация : Digital Theater Systems
Режим : 16
Параметр Endianness формата : Big
Идентификатор кодека : A_DTS
Продолжительность : 2 ч. 17 м.
Вид битрейта : Постоянный
Битрейт : 755 Кбит/сек
Каналы : 6 каналов
Расположение каналов : Front: L C R, Side: L R, LFE
Частота : 48,0 КГц
Битовая глубина : 24 бит
Метод сжатия : С потерями
Размер потока : 744 Мбайт (3%)
Заголовок : Дублированный (Лицензия)
Язык : Russian
Default : Нет
Forced : Нет
Аудио #3
Идентификатор : 4
Формат : DTS
Формат/Информация : Digital Theater Systems
Профиль формата : MA / Core
Режим : 16
Параметр Endianness формата : Big
Идентификатор кодека : A_DTS
Продолжительность : 2 ч. 17 м.
Вид битрейта : Переменный
Битрейт : Неизвестно / 1509 Кбит/сек
Каналы : 6 каналов
Расположение каналов : Front: L C R, Side: L R, LFE
Частота : 48,0 КГц
Битовая глубина : 24 бит
Метод сжатия : Без потерь / Lossy
Язык : English
Default : Нет
Forced : Нет
Текст #1
Идентификатор : 5
Формат : UTF-8
Идентификатор кодека : S_TEXT/UTF8
Идентификатор кодека/Информация : UTF-8 Plain Text
Заголовок : Forced
Язык : Russian
Default : Да
Forced : Нет
Текст #2
Идентификатор : 6
Формат : UTF-8
Идентификатор кодека : S_TEXT/UTF8
Идентификатор кодека/Информация : UTF-8 Plain Text
Заголовок : Full
Язык : Russian
Default : Нет
Forced : Нет
Текст #3
Идентификатор : 7
Формат : UTF-8
Идентификатор кодека : S_TEXT/UTF8
Идентификатор кодека/Информация : UTF-8 Plain Text
Заголовок : Full
Язык : Latvian
Default : Нет
Forced : Нет
Текст #4
Идентификатор : 8
Формат : UTF-8
Идентификатор кодека : S_TEXT/UTF8
Идентификатор кодека/Информация : UTF-8 Plain Text
Заголовок : Full
Язык : Lithuanian
Default : Нет
Forced : Нет
Текст #5
Идентификатор : 9
Формат : UTF-8
Идентификатор кодека : S_TEXT/UTF8
Идентификатор кодека/Информация : UTF-8 Plain Text
Заголовок : Full
Язык : Estonian
Default : Нет
Forced : Нет
Текст #6
Идентификатор : 10
Формат : UTF-8
Идентификатор кодека : S_TEXT/UTF8
Идентификатор кодека/Информация : UTF-8 Plain Text
Заголовок : Full
Язык : Ukrainian
Default : Нет
Forced : Нет
Текст #7
Идентификатор : 11
Формат : UTF-8
Идентификатор кодека : S_TEXT/UTF8
Идентификатор кодека/Информация : UTF-8 Plain Text
Язык : English
Default : Нет
Forced : Нет
Меню
00:00:00.000 : :Chapter 01
00:06:38.022 : :Chapter 02
00:09:47.086 : :Chapter 03
00:12:12.565 : :Chapter 04
00:19:50.606 : :Chapter 05
00:27:59.677 : :Chapter 06
00:31:31.973 : :Chapter 07
00:34:35.239 : :Chapter 08
00:37:13.856 : :Chapter 09
00:46:31.830 : :Chapter 10
00:50:45.876 : :Chapter 11
00:56:54.494 : :Chapter 12
00:58:13.448 : :Chapter 13
00:59:55.258 : :Chapter 14
01:02:37.628 : :Chapter 15
01:04:40.710 : :Chapter 16
01:10:51.371 : :Chapter 17
01:15:33.487 : :Chapter 18
01:17:44.033 : :Chapter 19
01:19:53.705 : :Chapter 20
01:25:41.302 : :Chapter 21
01:30:10.112 : :Chapter 22
01:34:25.783 : :Chapter 23
01:38:29.778 : :Chapter 24
01:41:34.838 : :Chapter 25
01:44:25.842 : :Chapter 26
01:46:19.372 : :Chapter 27
01:48:58.363 : :Chapter 28
01:51:45.907 : :Chapter 29
01:58:04.452 : :Chapter 30
01:59:36.252 : :Chapter 31
02:03:57.137 : :Chapter 32
02:05:26.310 : :Chapter 33
02:08:22.778 : :Chapter 34
02:10:27.944 : :Chapter 35
02:13:53.650 : :Chapter 36
02:17:56.100 : :Chapter 37

Скриншоты



[Профиль] [ЛС]
Кто просматривает тему:

Форум Тема Автор Размер
Cборники 70х-80х-90х (Ретро) (POP) VA - Антология советской эстрады 70-е годы - 2009, MP3, VBR 192-256 kbps Magnat 601 MB
Cборники 70х-80х-90х (Ретро) (POP) VA - Советские хиты 70-80-х - Как Молоды Мы Были - 2008, MP3, 128 kbps Magnat 674 MB
Cборники 70х-80х-90х (Ретро) (POP) VA Легенды советской эстрады 70-80 №6 - 2011, MP3, 320 kbps Magnat 831 MB
Other genres (Pop,Retro,Советская эстрада)VA - Сделано в С.С.С.Р. (Ретро сборник)(10CD)2007 - 2010 FLAC(Image+*cue), Lossless sergej644 3.86 GB
Cборники 70х-80х-90х (Ретро) (Pop,Retro,Советская эстрада)VA - Сделано в С.С.С.Р. (Ретро сборник)(10CD)2007 - 2010 MP3 (tracks), 320 kbps sergej644 1.53 GB
Music from other genres (Retro, Советская эстрада) VA - Золотые хиты ВИА (В.Добрынин) (4CD) - 2011 [FLAC, image+.cue, lossless] sergej644 2.99 GB
Сборники (Retro, Советская эстрада) VA - Золотые хиты ВИА (В.Добрынин) (4CD) - 2011 [MP3, tracks, 320 kbps] sergej644 1.49 GB
Music from other genres (Retro, Советская эстрада) VA - Кружатся Диски. ВИА 70-80-х годов - 1996 [WavPack, image +.cue, lossless] sergej644 400 MB
Показать сообщения:    

Текущее время: Сегодня 08:32

Часовой пояс: GMT



Вы не можете начинать темы
Вы не можете отвечать на сообщения
Вы не можете редактировать свои сообщения
Вы не можете удалять свои сообщения
Вы не можете голосовать в опросах
Вы не можете прикреплять файлы к сообщениям
Вы не можете скачивать файлы