Совершенный мир / Идеальный мир / A Perfect World (1993) BDRip [720p]

 
Автор Сообщение

sergej644 ®

Пол:

Стаж: 4 года 11 месяцев

Сообщений: 6046

Откуда: Soviet Union



Награды: Нет

Торрент-статистика

Создавать темы 18-Дек-2014 12:08

[Цитировать]

-Совершенный мир / Идеальный мир / A Perfect World (1993) BDRip-«Я не хороший человек, но и не совсем плохой»- Год выпуска: 1993
Жанр: Триллер, Драма, Криминал
Производство: США / Malpaso Productions, Warner Bros. Pictures Co.
Описание фильма:
Батч Хейнс — закаленный жизнью преступник, бежавший вместе с юным заложником, видящим в Батче отца, которого у него никогда не было. Ред Гарнетт — хитрый техасский рейнджер, предводитель шерифов. Ему знакомы каждая тропинка и укрытие. И более того — ему знаком и неуловимый Хейнс, ведь их пути уже пересекались однажды.
Режиссер: Клинт Иствуд
Актеры: Кевин Костнер, Клинт Иствуд, Лора Дерн, Т. Дж. Лоузер, Кит Шарабайка, Лео Бёрместер, Пол Хьюит, Брэдли Уитфорд, Рэй МакКиннон, Дженнифер Гриффин
Продолжительность: 02:18:18
Качество видео: BDRip
Перевод: Дублированный, Многоголосый закадровый, Авторский одноголосый
Язык субтитров: Русский, Английский
Вид субтитров: Вшитые отключаемые

Видеокодек: MPEG-4 AVC/H.264
Битрейт видео: ~8172 kbps
Размер кадра: 1280 x 534
Аудио 1: Русский, AC3 2.0, 192 kbps, 48 kHz (дубляж, Варус-Видео, VHS)
Аудио 2: Русский, AC3 2.0, 192 kbps, 48 kHz (MVO, Россия)
Аудио 3: Русский, AC3 2.0, 192 kbps, 48 kHz (MVO, НТВ+)
Аудио 4: Русский, AC3 2.0, 192 kbps, 48 kHz (AVO, A.Гаврилов)
Аудио 5: Русский, AC3 2.0, 192 kbps, 48 kHz (AVO, C.Визгунов)
Аудио 6: Русский, AC3 2.0, 192 kbps, 48 kHz (AVO, B.Горчаков)
Аудио 7: Русский, AC3 5.1, 384 kbps, 48 kHz (AVO, А.Попов)
Аудио 8: Русский, DTS 5.1, 1509 kbps, 48 kHz (AVO, Ю.Живов)
Аудио 9: Английский, DTS 5.1, 1509 kbps, 48 kHz (Original)
Сэмпл: Ссылка

Знаете ли вы, что...

• Песня «Море несчастья», звучащая в фильме, была также использована в другом фильме Иствуда — «Перевал разбитых сердец».
• Фото на плакате к фильму не является кадром из самого фильма. В фильме Филип всегда одет необычно — вначале в нижнем белье, затем в костюме Каспера.
• В биллинге к фильму Кевин Костнер указан выше Клинта Иствуда. Таким образом, это первый фильм со времен «Раскрась свой фургон» (1969), в котором Иствуд находится не на первой строке биллинга.
• На роль Хейнса Иствуд первоначально планировал взять Дензела Вашингтона.

Из книги «3500 кинорецензий»

Кевин Костнер, сыгравший разочарованного бандита Роберта Хейнса, который в 60-е годы сбежал из тюрьмы в Хантсвилле и по пути в Техас захватил в заложники маленького мальчика, исполнил перед этим заглавную роль в очень популярной ленте «Телохранитель» Мика Джексона, между прочим, навеянной одноимённым фильмом Акиры Куросавы. В свою очередь, Клинта Иствуда, постановщика «Идеального мира», также играющего в своей картине техасского рейнджера Реда Гарнетта, можно было бы назвать «первым самураем Запада», поскольку он прославился именно в шестидесятые в вестерне «За пригоршню долларов», который был создан итальянцем Серджо Леоне по мотивам того же «Телохранителя» Куросавы. Так что в «Идеальном мире» встретились будто два «одиноких самурая», хоть и оказавшиеся на сей раз по обе стороны закона, представляя преследуемого и преследующего.
Однако этой режиссёрской работе Иствуда всё же не хватает напряжённого сюжета, точнее — большего драматизма в поединке между соперничающими героями, пусть неожиданно горький конец в корне меняет наше зрительское впечатление от ленты, заставив пожалеть, что всё действие не было решено столь же замечательно. И вообще возникает невольное желание приклеить данный финал к параллельно снятой отличной криминальной драме «На линии огня» о противостоянии агента секретной службы (в этой роли — конечно же, Клинт Иствуд) и отставного цэрэушника, который решил убить президента США, ибо фильм Вольфганга Петерсена, напротив, существенно проигрывает из-за типично голливудского хэппи-энда. В этих взаимодополняющих картинах вместо одного затерянного самурая — две пары прочно связанных друг с другом персонажей, которые, наряду с бессознательной тягой к смерти, испытывают чисто американское желание возвыситься и преуспеть, обрести некий идеальный мир.
Но весьма любопытно, что «Идеальный мир», где Иствуд впервые за 24 года — с момента появления в 1969-м вестерна «Покрась свой фургон» — был указан в титрах не впереди всех исполнителей, пользовался несравнимо более значительным (в три с лишним раза) успехом в остальном мире, нежели в США, собрав за пределами Америки свыше $100 млн

MediaInfo:

Общее
Уникальный идентификатор : 208534311031189526750258613457433374708 (0x9CE23F55EA4EF2F0BB1014B5492BAFF4)
Полное имя : D:\Films\A.Perfect.World.1993.BDRip.720p.mkv
Формат : Matroska
Версия формата : Version 2
Размер файла : 12,3 Гбайт
Продолжительность : 2 ч. 18 м.
Общий поток : 12,7 Мбит/сек
Дата кодирования : UTC 2014-12-16 13:45:14
Программа кодирования : mkvmerge v5.2.0 ('I can't explain') built on Dec 18 2011 18:12:03
Библиотека кодирования : libebml v1.2.3 + libmatroska v1.3.0
Видео
Идентификатор : 1
Формат : AVC
Формат/Информация : Advanced Video Codec
Профиль формата : [url=mailto:High@L4.1]High@L4.1[/url]
Параметр CABAC формата : Да
Параметр ReFrames формата : 11 кадров
Идентификатор кодека : V_MPEG4/ISO/AVC
Продолжительность : 2 ч. 18 м.
Битрейт : 7923 Кбит/сек
Ширина : 1280 пикселей
Высота : 534 пикселя
Соотношение сторон : 2,40:1
Режим частоты кадров : Постоянный
Частота кадров : 23,976 кадра/сек
Цветовое пространство : YUV
Субдискретизация насыщенности : 4:2:0
Битовая глубина : 8 бит
Тип развёртки : Прогрессивная
Бит/(Пиксели*Кадры) : 0.483
Размер потока : 7,66 Гбайт (62%)
Библиотека кодирования : x264 core 124 r2197 69a0443
Настройки программы : cabac=1 / ref=11 / deblock=1:-3:-3 / analyse=0x3:0x113 / me=tesa / subme=11 / psy=1 / psy_rd=1.05:0.00 / mixed_ref=1 / me_range=16 / chroma_me=1 / trellis=2 / 8x8dct=1 / cqm=0 / deadzone=21,11 / fast_pskip=0 / chroma_qp_offset=-2 / threads=12 / sliced_threads=0 / nr=0 / decimate=0 / interlaced=0 / bluray_compat=0 / constrained_intra=0 / bframes=8 / b_pyramid=2 / b_adapt=2 / b_bias=0 / direct=3 / weightb=1 / open_gop=0 / weightp=2 / keyint=250 / keyint_min=23 / scenecut=40 / intra_refresh=0 / rc=crf / mbtree=0 / crf=15.0 / qcomp=0.65 / qpmin=0 / qpmax=69 / qpstep=4 / ip_ratio=1.40 / pb_ratio=1.30 / aq=1:0.74
Язык : English
Default : Да
Forced : Нет
Аудио #1
Идентификатор : 2
Формат : AC-3
Формат/Информация : Audio Coding 3
Расширение режима : CM (complete main)
Параметр Endianness формата : Big
Идентификатор кодека : A_AC3
Продолжительность : 2 ч. 18 м.
Вид битрейта : Постоянный
Битрейт : 192 Кбит/сек
Каналы : 2 канала
Расположение каналов : Front: L R
Частота : 48,0 КГц
Битовая глубина : 16 бит
Метод сжатия : С потерями
Размер потока : 190 Мбайт (2%)
Заголовок : дубляж
Язык : Russian
Default : Да
Forced : Нет
Аудио #2
Идентификатор : 3
Формат : AC-3
Формат/Информация : Audio Coding 3
Расширение режима : CM (complete main)
Параметр Endianness формата : Big
Идентификатор кодека : A_AC3
Продолжительность : 2 ч. 18 м.
Вид битрейта : Постоянный
Битрейт : 192 Кбит/сек
Каналы : 2 канала
Расположение каналов : Front: L R
Частота : 48,0 КГц
Битовая глубина : 16 бит
Метод сжатия : С потерями
Размер потока : 190 Мбайт (2%)
Заголовок : MVO, Россия
Язык : Russian
Default : Нет
Forced : Нет
Аудио #3
Идентификатор : 4
Формат : AC-3
Формат/Информация : Audio Coding 3
Расширение режима : CM (complete main)
Параметр Endianness формата : Big
Идентификатор кодека : A_AC3
Продолжительность : 2 ч. 18 м.
Вид битрейта : Постоянный
Битрейт : 192 Кбит/сек
Каналы : 2 канала
Расположение каналов : Front: L R
Частота : 48,0 КГц
Битовая глубина : 16 бит
Метод сжатия : С потерями
Размер потока : 190 Мбайт (2%)
Заголовок : MVO, НТВ+
Язык : Russian
Default : Нет
Forced : Нет
Аудио #4
Идентификатор : 5
Формат : AC-3
Формат/Информация : Audio Coding 3
Расширение режима : CM (complete main)
Параметр Endianness формата : Big
Идентификатор кодека : A_AC3
Продолжительность : 2 ч. 18 м.
Вид битрейта : Постоянный
Битрейт : 192 Кбит/сек
Каналы : 2 канала
Расположение каналов : Front: L R
Частота : 48,0 КГц
Битовая глубина : 16 бит
Метод сжатия : С потерями
Размер потока : 190 Мбайт (2%)
Заголовок : AVO, A.Гаврилов
Язык : Russian
Default : Нет
Forced : Нет
Аудио #5
Идентификатор : 6
Формат : AC-3
Формат/Информация : Audio Coding 3
Расширение режима : CM (complete main)
Параметр Endianness формата : Big
Идентификатор кодека : A_AC3
Продолжительность : 2 ч. 18 м.
Вид битрейта : Постоянный
Битрейт : 192 Кбит/сек
Каналы : 2 канала
Расположение каналов : Front: L R
Частота : 48,0 КГц
Битовая глубина : 16 бит
Метод сжатия : С потерями
Размер потока : 190 Мбайт (2%)
Заголовок : AVO, C.Визгунов
Язык : Russian
Default : Нет
Forced : Нет
Аудио #6
Идентификатор : 7
Формат : AC-3
Формат/Информация : Audio Coding 3
Расширение режима : CM (complete main)
Параметр Endianness формата : Big
Идентификатор кодека : A_AC3
Продолжительность : 2 ч. 18 м.
Вид битрейта : Постоянный
Битрейт : 192 Кбит/сек
Каналы : 2 канала
Расположение каналов : Front: L R
Частота : 48,0 КГц
Битовая глубина : 16 бит
Метод сжатия : С потерями
Размер потока : 190 Мбайт (2%)
Заголовок : AVO, B.Горчаков
Язык : Russian
Default : Нет
Forced : Нет
Аудио #7
Идентификатор : 8
Формат : AC-3
Формат/Информация : Audio Coding 3
Расширение режима : CM (complete main)
Параметр Endianness формата : Big
Идентификатор кодека : A_AC3
Продолжительность : 2 ч. 18 м.
Вид битрейта : Постоянный
Битрейт : 384 Кбит/сек
Каналы : 6 каналов
Расположение каналов : Front: L C R, Side: L R, LFE
Частота : 48,0 КГц
Битовая глубина : 16 бит
Метод сжатия : С потерями
Размер потока : 380 Мбайт (3%)
Заголовок : AVO, А.Попов
Язык : Russian
Default : Нет
Forced : Нет
Аудио #8
Идентификатор : 9
Формат : DTS
Формат/Информация : Digital Theater Systems
Режим : 16
Параметр Endianness формата : Big
Идентификатор кодека : A_DTS
Продолжительность : 2 ч. 18 м.
Вид битрейта : Постоянный
Битрейт : 1509 Кбит/сек
Каналы : 6 каналов
Расположение каналов : Front: L C R, Side: L R, LFE
Частота : 48,0 КГц
Битовая глубина : 16 бит
Метод сжатия : С потерями
Размер потока : 1,46 Гбайт (12%)
Заголовок : AVO, Ю.Живов
Язык : Russian
Default : Нет
Forced : Нет
Аудио #9
Идентификатор : 10
Формат : DTS
Формат/Информация : Digital Theater Systems
Режим : 16
Параметр Endianness формата : Big
Идентификатор кодека : A_DTS
Продолжительность : 2 ч. 18 м.
Вид битрейта : Постоянный
Битрейт : 1509 Кбит/сек
Каналы : 6 каналов
Расположение каналов : Front: L C R, Side: L R, LFE
Частота : 48,0 КГц
Битовая глубина : 24 бит
Метод сжатия : С потерями
Размер потока : 1,46 Гбайт (12%)
Заголовок : Original
Язык : English
Default : Нет
Forced : Нет
Текст #1
Идентификатор : 11
Формат : UTF-8
Идентификатор кодека : S_TEXT/UTF8
Идентификатор кодека/Информация : UTF-8 Plain Text
Заголовок : v1
Язык : Russian
Default : Нет
Forced : Нет
Текст #2
Идентификатор : 12
Формат : UTF-8
Идентификатор кодека : S_TEXT/UTF8
Идентификатор кодека/Информация : UTF-8 Plain Text
Заголовок : v2
Язык : Russian
Default : Нет
Forced : Нет
Текст #3
Идентификатор : 13
Формат : UTF-8
Идентификатор кодека : S_TEXT/UTF8
Идентификатор кодека/Информация : UTF-8 Plain Text
Заголовок : v3 [Попов]
Язык : Russian
Default : Нет
Forced : Нет
Текст #4
Идентификатор : 14
Формат : UTF-8
Идентификатор кодека : S_TEXT/UTF8
Идентификатор кодека/Информация : UTF-8 Plain Text
Язык : English
Default : Нет
Forced : Нет
Текст #5
Идентификатор : 15
Формат : UTF-8
Идентификатор кодека : S_TEXT/UTF8
Идентификатор кодека/Информация : UTF-8 Plain Text
Заголовок : SDH
Язык : English
Default : Нет
Forced : Нет
Меню
00:00:00.000 : en:00:00:00.000
00:01:33.510 : en:00:01:33.510
00:02:45.332 : en:00:02:45.332
00:07:19.230 : en:00:07:19.230
00:13:46.659 : en:00:13:46.659
00:17:12.073 : en:00:17:12.073
00:19:54.735 : en:00:19:54.735
00:22:36.355 : en:00:22:36.355
00:29:37.025 : en:00:29:37.025
00:34:02.749 : en:00:34:02.749
00:37:18.528 : en:00:37:18.528
00:42:41.684 : en:00:42:41.684
00:44:20.491 : en:00:44:20.491
00:45:56.629 : en:00:45:56.629
00:53:30.457 : en:00:53:30.457
00:55:41.421 : en:00:55:41.421
00:58:39.474 : en:00:58:39.474
01:03:19.921 : en:01:03:19.921
01:05:27.090 : en:01:05:27.090
01:08:28.938 : en:01:08:28.938
01:16:16.030 : en:01:16:16.030
01:16:56.612 : en:01:16:56.612
01:18:24.742 : en:01:18:24.742
01:20:03.132 : en:01:20:03.132
01:24:22.432 : en:01:24:22.432
01:28:26.635 : en:01:28:26.635
01:31:37.659 : en:01:31:37.659
01:33:23.932 : en:01:33:23.932
01:38:06.255 : en:01:38:06.255
01:41:08.813 : en:01:41:08.813
01:42:55.169 : en:01:42:55.169
01:46:39.184 : en:01:46:39.184
01:49:20.304 : en:01:49:20.304
01:53:49.197 : en:01:53:49.197
01:58:51.458 : en:01:58:51.458
02:02:40.395 : en:02:02:40.395
02:04:14.530 : en:02:04:14.530
02:07:09.330 : en:02:07:09.330
02:08:02.633 : en:02:08:02.633
02:10:46.338 : en:02:10:46.338
02:11:18.204 : en:02:11:18.204
02:13:01.640 : en:02:13:01.640
-Скриншоты: -Время раздачи: С 8:00 до 22:00 до 5 скачавших
[Профиль] [ЛС]
Кто просматривает тему:

Форум Тема Автор Размер
Документальные HD BBC. Планета динозавров: Совершенные убийцы / Planet Dinosaur: Ultimate Killers (2012) BDRip-AVC от -=HD-NET=- Белочка 877 MB
R.G.TorrentFilm Video Авиакатастрофы: совершенно секретно / Aircrash Confidential [Сезон 1, серии 6 из 6] (WMR Productions & IMG Entertainment) [2010-2011 г., Документальный, авиация, SATRip] Один 777 2.05 GB
R.G.TorrentFilm Video Авиакатастрофы: совершенно секретно / Aircrash Confidential [Сезон 2, серии 6 из 6] (Саймон Ладгейт / Simon Ludgate) [2012 г., Документальный, авиация, SATRip] Один 777 2.05 GB
Фильмы 2015 года Будущее совершенное (2015) SATRip достали все 1.27 GB
Фильмы (HD Rips | 720p, 1080p) Будущее совершенное (Алексей Карелин) [2015, Россия, мелодрама, HDTV 1080i] + Original Rus TorrentFilm 5.4 GB
Зарубежные мультсериалы Великий Человек-паук / Совершенный Человек-паук / Ultimate Spider-Man [01x01-26 из 26] (2012) DVDRip-AVC | D | лицензия Russian Mafia 9.19 GB
Фильмы (DVD 5/9) Любовь под грифом «Совершенно секретно» (2008) DVD9 от New-Team sergej644 7.21 GB
Фильмы (DVD 5/9) Любовь под грифом «Совершенно секретно» 3 (Андрей Либенсон) [2010, Россия, боевик, детектив, DVD5] R5 Sub Ukr + Original Rus TorrentFilm 4.26 GB
Показать сообщения:    

Текущее время: Сегодня 04:29

Часовой пояс: GMT



Вы не можете начинать темы
Вы не можете отвечать на сообщения
Вы не можете редактировать свои сообщения
Вы не можете удалять свои сообщения
Вы не можете голосовать в опросах
Вы не можете прикреплять файлы к сообщениям
Вы не можете скачивать файлы