Событие (Андрей Эшпай) [2009, Россия, драма, DVD9] R5 Original Rus

 
Автор Сообщение

TorrentFilm ®

Пол:

Стаж: 2 года

Сообщений: 7741



Награды: Нет

Торрент-статистика

Создавать темы 01-Янв-2016 00:07

[Цитировать]

-Событие -Страна: Россия
Студия: Демарш
Жанр: драма
Год выпуска: 2009
Российская премьера: 21 июня 2009
Дата выхода DVD: 16 июля 2012, «Новый Диск»
Продолжительность: 01:50:55
Перевод: Оригинал [Лицензия]
Cубтитры: нет
Оригинальная аудиодорожка: русский-Режиссер: Андрей Эшпай-В ролях: Чулпан Хаматова, Игорь Гордин, Сергей Перелыгин, Евгения Симонова, Зоя Кайдановская, Сергей Дрейден, Евгений Цыганов, Инга Оболдина, Ольга Прокофьева, Вячеслав Баранов, Генриетта Егорова, Юрий Колокольников, Елена Коренева, Ольга Лапшина, Юрий Нифонтов, Мария Эшпай-Симонова-Описание: По мотивам произведения Владимира Набокова. В центре картины — история художника Трощейкина, его жены Любы, ее матери и сестры. Они живут за границей, в провинциальном маленьком городке, населенном соотечественниками. Неожиданное возвращение в город некого Барбашина переворачивает жизнь семьи. Пять лет назад в припадке ревности этот человек стрелял в Трощейкина и его жену, ранил их и, попав на шесть лет в тюрьму, пообещал вернуться и закончить начатое…-Бонусы: Нет- -Релиз группы: -Качество: DVD9 R5
Формат: DVD-Video
Видео кодек: MPEG2
Аудио кодек: AC3
Видео: PAL 4:3 (720x576(0.750)) MPEG Video, 25,000 кадр/сек, 7778 Кбит/сек
Аудио: Russian (Dolby AC3, 2 ch) 256 Кбит/сек, 48,0 КГц--

DVDInfo

Title: Sobytie.2009.DVD9
Size: 6.31 Gb ( 6 621 094,00 KBytes ) - DVD-9
Enabled regions: 1, 2, 3, 4, 5, 6, 7, 8
VTS_01 :
Play Length: 00:00:15
Video: PAL 4:3 (720x576) VBR
Audio:
Not specified (Dolby AC3, 2 ch)
VTS_02 :
Play Length: 00:00:08
Video: PAL 4:3 (720x576) VBR
Audio:
Not specified (Dolby AC3, 2 ch)
VTS_03 :
Play Length: 01:50:55
Video: PAL 4:3 (720x576) VBR
Audio:
Not specified (Dolby AC3, 2 ch)
* Menus Information *
VIDEO_TS Menu
Video:
PAL 4:3 (720x576) VBR
English Language Unit :
Title Menu
VTS_01 Menu
Video:
PAL 4:3 (720x576) VBR
Audio:
Not specified (Dolby AC3, 2 ch)
English Language Unit :
Root Menu
Chapter (PTT) Menu
VTS_02 Menu
Video:
PAL 4:3 (720x576) VBR
Auto Pan&Scan, Auto Letterboxed
English Language Unit :
Root Menu
Chapter (PTT) Menu

MediaInfo

Общее
Полное имя : J:\Новинки 2012\Sobytie.2009.DVD9\VIDEO_TS\VTS_03_1.VOB
Формат : MPEG-PS
Размер файла : 1024 Мбайт
Продолжительность : 17 м.
Режим общего битрейта : Переменный
Общий поток : 8197 Кбит/сек
Видео
Идентификатор : 224 (0xE0)
Формат : MPEG Video
Версия формата : Version 2
Профиль формата : Main@Main
Параметр BVOP формата : Да
Параметр матрицы формата : По умолчанию
Параметр GOP формата : M=3, N=12
Продолжительность : 17 м.
Вид битрейта : Переменный
Битрейт : 7778 Кбит/сек
Максимальный битрейт : 8500 Кбит/сек
Ширина : 720 пикселей
Высота : 576 пикселей
Соотношение сторон : 4:3
Частота кадров : 25,000 кадров/сек
Стандарт вещания : PAL
Цветовое пространство : YUV
Субдискретизация насыщенности : 4:2:0
Битовая глубина : 8 бит
Тип развёртки : Прогрессивная
Метод сжатия : С потерями
Бит/(Пиксели*Кадры) : 0.750
Размер потока : 972 Мбайт (95%)
Аудио
Идентификатор : 189 (0xBD)-128 (0x80)
Формат : AC-3
Формат/Информация : Audio Coding 3
Расширение режима : CM (complete main)
Параметр Endianness формата : Big
Режим смешивания : DVD-Video
Продолжительность : 17 м.
Вид битрейта : Постоянный
Битрейт : 256 Кбит/сек
Каналы : 2 канала
Расположение каналов : Front: L R
Частота : 48,0 КГц
Битовая глубина : 16 бит
Метод сжатия : С потерями
Размер потока : 32,0 Мбайт (3%)

Скриншоты меню

Скриншоты фильма


-
-Раздача от группы:
[Профиль] [ЛС]
Кто просматривает тему:

Форум Тема Автор Размер
Фильмы 2015 года Битва за Севастополь (Сергей Мокрицкий) [2015, Военный, ВОВ, драма, реальные события] DVDRip | Лицензия BOSS 2.05 GB
Отечественные cериалы Битва за Севастополь /Незламна (Расширенная телеверсия) (Серии 1-4 из 4) (Сергей Мокрицкий) [2015, Военный, ВОВ, драма, реальные события,HDTVRip-AVC 1080p ] Враг Нароода 10.37 GB
Внежанровая документалистика В центре событий с Анной Прохоровой [12/07/2015, Информационно-аналитическая программа, SATRip Монах 830 MB
Фильмы 2011 года Дрейф / Open Water 2: Adrift (Ганс Хорн / Hans Horn) [2006, Германия, триллер, драма, реальные события, BDRip-AVC] Dub + DVO + Sub Rus, Eng + Original Eng TorrentFilm 2.18 GB
Фильмы (HD Rips | 720p, 1080p) Ледокол / Icebreaker (Николай Хомерики) [2016, Драма, фильм-катастрофа, приключения, реальные события , ]WEB-DL 1080p] [DD5.1] Враг Нароода 6.22 GB
Фильмы (HD DVD, Blu-ray и BDRemux) Несломленный / Unbroken (Анджелина Джоли) [2014, Драма, военный, биография, спорт, реальные события] BDRemux 1080p | Лицензия достали все 27.37 GB
Фильмы (HD Rips | 720p, 1080p) Несломленный / Unbroken (Анджелина Джоли) [2014, Драма, военный, биография, спорт, реальные события] BDRip 720p от HDClub | Лицензия достали все 6.92 GB
Фильмы 2014 года Несломленный / Unbroken (Анджелина Джоли) [2014, Драма, военный, биография, спорт, реальные события] BDRip | Лицензия BOSS 2.19 GB
Показать сообщения:    

Текущее время: Сегодня 16:54

Часовой пояс: GMT



Вы не можете начинать темы
Вы не можете отвечать на сообщения
Вы не можете редактировать свои сообщения
Вы не можете удалять свои сообщения
Вы не можете голосовать в опросах
Вы не можете прикреплять файлы к сообщениям
Вы не можете скачивать файлы