Собачье сердце (Владимир Бортко) [1988 г., СССР, драма, комедия, DVD5] Original Rus + Sub (Rus, Eng)

 
Автор Сообщение

TorrentFilm ®

Пол:

Стаж: 1 год 11 месяцев

Сообщений: 7741



Награды: Нет

Торрент-статистика

Создавать темы 01-Янв-2016 00:08

[Цитировать]

Собачье сердце
Страна: СССР
Студия: Ленфильм
Жанр: драма, комедия
Год выпуска: 1988 г.
Продолжительность: 2:07:41
Перевод: Не требуется
Cубтитры: русские, английские
Оригинальная аудиодорожка: русский
Режиссер: Владимир Бортко
В ролях: Евгений Евстигнеев, Роман Карцев, Нина Русланова, Алексей Миронов, Борис Плотников, Евгений Кузнецов, Владимир Толоконников, Ольга Мелихова, Анжелика Неволина, Наталья Фоменко, Иван Ганжа
Описание: Профессор Преображенский ставит опыты, пытаясь превратить собаку Шарика в равного себе во всем человека, "не любящего пролетариат".
Доп. информация: На диске также имеется мультимедийная программа для ПК о жизни и творчестве М. А. Булгакова, текст повести "Собачье сердце". В раздачу не включена, только каталог VIDEO_TS. Диск издан - TWISTER, 2000 г.
Бонусы: Фильмография актеров, архивные материалы о Михаиле Булгакове.
Меню: русскоязычное, англоязычное, анимированное, озвученное
Сэмпл: http://www.sendspace.com/file/7h72vo
Тип релиза: DVD5
Контейнер: DVD-Video
Видео: MPEG-2 PAL 4:3 (720x576) VBR ~3 647 Kbps avg 25.000 fps
Аудио: Russian, AC3, 3/2ch, 48.0 KHz, 384Kbps, Delay 480 mSec

MediaInfo

General
Complete name : G:\VIDEO_TS\VTS_01_1.VOB
Format : MPEG-PS
File size : 1 024 MiB
Duration : 34mn 48s
Overall bit rate mode : Variable
Overall bit rate : 4 113 Kbps
Video
ID : 224 (0xE0)
Format : MPEG Video
Format version : Version 2
Format profile : Main@Main
Format settings, BVOP : Yes
Format settings, Matrix : Custom
Format settings, GOP : M=3, N=15
Duration : 34mn 48s
Bit rate mode : Variable
Bit rate : 3 647 Kbps
Maximum bit rate : 9 000 Kbps
Width : 720 pixels
Height : 576 pixels
Display aspect ratio : 4:3
Frame rate : 25.000 fps
Standard : PAL
Color space : YUV
Chroma subsampling : 4:2:0
Bit depth : 8 bits
Scan type : Interlaced
Scan order : Top Field First
Compression mode : Lossy
Bits/(Pixel*Frame) : 0.352
Stream size : 908 MiB (89%)
Audio
ID : 189 (0xBD)-128 (0x80)
Format : AC-3
Format/Info : Audio Coding 3
Mode extension : CM (complete main)
Format settings, Endianness : Big
Muxing mode : DVD-Video
Duration : 34mn 47s
Bit rate mode : Constant
Bit rate : 384 Kbps
Channel(s) : 6 channels
Channel positions : Front: L C R, Side: L R, LFE
Sampling rate : 48.0 KHz
Bit depth : 16 bits
Compression mode : Lossy
Delay relative to video : 480ms
Stream size : 95.6 MiB (9%)
Text #1
ID : 189 (0xBD)-32 (0x20)
Format : RLE
Format/Info : Run-length encoding
Muxing mode : DVD-Video
Text #2
ID : 189 (0xBD)-33 (0x21)
Format : RLE
Format/Info : Run-length encoding
Muxing mode : DVD-Video
Menu

DVDDecrypter

I 14:24:34 DVD Decrypter Version 3.5.4.0 started!
I 14:24:34 Professional (6.1, Build 7600)
I 14:24:34 Initialising SPTI...
I 14:24:34 Searching for SCSI / ATAPI devices...
I 14:24:35 Found 1 DVD-ROM and 1 DVD+RW!
I 14:24:53 Operation Started!
I 14:24:53 Source Device: [2:1:0] PIONEER DVD-RW DVR-112D 1.21 (G:) (ATA)
I 14:24:53 Source Media Type: DVD-ROM
I 14:24:53 Source Media Region Code: 1; 2; 3; 4; 5; 6; 7; 8
I 14:24:53 Source Media Copyright Protection System Type: None
I 14:24:53 Source Media Implementation Identifier: Daikin U.S. Comtec Lab
I 14:24:53 Destination Folder: D:\HEART_OF_THE_DOG\VIDEO_TS\
I 14:24:53 File Splitting: By File
I 14:24:53 Detect Mastering Errors: No
I 14:24:53 Multi Angle Processing: No
I 14:24:54 Remove Macrovision Protection: Yes
I 14:24:54 Stream Processing: No
I 14:24:54 Copying VIDEO_TS.IFO... (LBA: 1017 - 1022) - KEY: N/A
I 14:24:54 Copying VIDEO_TS.VOB... (LBA: 1023 - 14953) - KEY: N/A
I 14:25:03 Copying VIDEO_TS.BUP... (LBA: 14954 - 14959) - KEY: N/A
I 14:25:03 Copying VTS_01_0.IFO... (LBA: 14960 - 15012) - KEY: N/A
I 14:25:03 Copying VTS_01_0.VOB... (LBA: 15013 - 137717) - KEY: N/A
I 14:25:29 Copying VTS_01_1.VOB... (LBA: 137718 - 661922) - KEY: N/A
I 14:26:56 Copying VTS_01_2.VOB... (LBA: 661923 - 1186114) - KEY: N/A
I 14:28:04 Copying VTS_01_3.VOB... (LBA: 1186115 - 1710300) - KEY: N/A
I 14:29:02 Copying VTS_01_4.VOB... (LBA: 1710301 - 2134808) - KEY: N/A
I 14:29:45 Copying VTS_01_0.BUP... (LBA: 2134809 - 2134861) - KEY: N/A
I 14:29:45 Operation Successfully Completed! - Duration: 00:04:52
I 14:29:45 Average Read Rate: 14 615 KB/s (10.6x) - Maximum Read Rate: 21 328 KB/s (15.4x)

Скриншоты меню

Скриншоты

Скриншоты доп. материалов

[Профиль] [ЛС]
Показать сообщения:    

Текущее время: Сегодня 20:11

Часовой пояс: GMT



Вы не можете начинать темы
Вы не можете отвечать на сообщения
Вы не можете редактировать свои сообщения
Вы не можете удалять свои сообщения
Вы не можете голосовать в опросах
Вы не можете прикреплять файлы к сообщениям
Вы не можете скачивать файлы