Собачье поле / Onirica. (2014) BDRip 720p от AleksSin | L2

 
Автор Сообщение

AleksSin ®

Пол:

Стаж: 6 лет

Сообщений: 218



Награды: 4 (Подробнее)

Mega Seeder 4 (Количество: 1) Mega Seeder 2 (Количество: 1) Mega Seeder 1 (Количество: 1)
Торрент-статистика

Создавать темы 11-Апр-2016 14:51

[Цитировать]

Собачье поле / Onirica.Год выхода: 2014
Жанр: Драма, фантасмагория, арт-хаус
Страна: Польша, Италия, Швеция
Студия: Angelus Silesius
Продолжительность: 01:42:01
Перевод: Любительский двухголосый (DeadSno & Den904)
Субтитры: Русские, английские (srt)
Навигация по главам: Есть
Режиссер: Лех Маевский
В ролях: Михал Татарек, Эльжбета Окупская, Анна Мелчарек, Яценты Ендрусик, Шимон Будзик
О фильме:
Отец вспахивает магазин на волах, плуг срезает черепицу. Лес полон мертвецов, Ниагара низвергается на церковный алтарь. Вот какие видения преследуют Адама, поэта, потерявшего свою возлюбленную в автокатастрофе. Национальная трагедия накладывается на личную. Год 2010, библейский год для Польши, с наводнениями, пожарами, оползнями, загадочной авиакатастрофой, в которой погибла вся элита страны. Адам увольняется с должности профессора литературы и идёт работать кассиром в супермаркет. Но он хочет только спать, спасаясь от болезненной действительности.

Файл
Кодек: x264
Качество: BDRip 720p Исходник Blu-Ray Remux 1080p
Видео: MPEG-4 AVC, 5955 Кбит/с, 1280x690 (1,85:1), 24,000 кадра/сек, 0.28 bit/pixel
Аудио #1: Русский (AC3, 2 ch, 48,0 КГц, 192 Кбит/с) - Любительский (двухголосый закадровый)
Аудио #2: Польский (AC3, 6 ch, 48,0 КГц, 448 Кбит/с) - Оригинал

MediaInfo

Log
x264 [info]: frame I:707 Avg QP:14.05 size:137217
x264 [info]: frame P:26511 Avg QP:16.03 size: 60723
x264 [info]: frame B:119702 Avg QP:17.54 size: 23809
Общее
Уникальный идентификатор : 242667752699067581048050225412077768391 (0xB6901BF0FE815B47A7B94C494477CEC7)
Полное имя : S:ФильмыСобачье поле. 2014. BDRip 720p (AleksSin).mkv
Формат : Matroska
Версия формата : Version 4 / Version 2
Размер файла : 4,70 Гбайт
Продолжительность : 1 ч. 42 м.
Общий поток : 6597 Кбит/сек
Дата кодирования : UTC 2016-04-11 14:13:15
Программа кодирования : mkvmerge v8.1.0 ('Psychedelic Postcard') 32bit
Библиотека кодирования : libebml v1.3.1 + libmatroska v1.4.2
Видео
Идентификатор : 1
Формат : AVC
Формат/Информация : Advanced Video Codec
Профиль формата : High@L4.1
Параметр CABAC формата : Да
Параметр ReFrames формата : 9 кадров
Идентификатор кодека : V_MPEG4/ISO/AVC
Продолжительность : 1 ч. 42 м.
Битрейт : 5955 Кбит/сек
Ширина : 1280 пикселей
Высота : 690 пикселей
Соотношение сторон : 1,85:1
Режим частоты кадров : Постоянный
Частота кадров : 24,000 кадра/сек
Цветовое пространство : YUV
Субдискретизация насыщенности : 4:2:0
Битовая глубина : 8 бит
Тип развёртки : Прогрессивная
Бит/(Пиксели*Кадры) : 0.281
Размер потока : 4,24 Гбайт (90%)
Библиотека кодирования : x264 core 148 r2665 a01e339
Настройки программы : cabac=1 / ref=9 / deblock=1:-3:-3 / analyse=0x3:0x133 / me=umh / subme=11 / psy=1 / psy_rd=1.00:0.10 / mixed_ref=1 / me_range=32 / chroma_me=1 / trellis=2 / 8x8dct=1 / cqm=0 / deadzone=21,11 / fast_pskip=1 / chroma_qp_offset=-2 / threads=12 / lookahead_threads=2 / sliced_threads=0 / nr=0 / decimate=1 / interlaced=0 / bluray_compat=0 / constrained_intra=0 / bframes=8 / b_pyramid=2 / b_adapt=2 / b_bias=0 / direct=3 / weightb=1 / open_gop=0 / weightp=2 / keyint=250 / keyint_min=23 / scenecut=40 / intra_refresh=0 / rc_lookahead=60 / rc=crf / mbtree=0 / crf=17.8 / qcomp=0.65 / qpmin=0 / qpmax=69 / qpstep=4 / vbv_maxrate=40000 / vbv_bufsize=30000 / crf_max=0.0 / nal_hrd=none / filler=0 / ip_ratio=1.40 / pb_ratio=1.30 / aq=3:0.90
Default : Да
Forced : Нет
Аудио #1
Идентификатор : 2
Формат : AC-3
Формат/Информация : Audio Coding 3
Расширение режима : CM (complete main)
Параметр Endianness формата : Big
Идентификатор кодека : A_AC3
Продолжительность : 1 ч. 42 м.
Вид битрейта : Постоянный
Битрейт : 192 Кбит/сек
Каналы : 2 канала
Расположение каналов : Front: L R
Частота : 48,0 КГц
Частота кадров : 31,250 кадров/сек (1536 spf)
Метод сжатия : С потерями
Размер потока : 140 Мбайт (3%)
Заголовок : Любительский двухголосый, DeadSno & Den904
Язык : Russian
Default : Да
Forced : Нет
Аудио #2
Идентификатор : 3
Формат : AC-3
Формат/Информация : Audio Coding 3
Расширение режима : CM (complete main)
Параметр Endianness формата : Big
Идентификатор кодека : A_AC3
Продолжительность : 1 ч. 42 м.
Вид битрейта : Постоянный
Битрейт : 448 Кбит/сек
Каналы : 6 каналов
Расположение каналов : Front: L C R, Side: L R, LFE
Частота : 48,0 КГц
Частота кадров : 31,250 кадров/сек (1536 spf)
Метод сжатия : С потерями
Размер потока : 327 Мбайт (7%)
Заголовок : Оригинал
Язык : Polish
Default : Нет
Forced : Нет
Текст #1
Идентификатор : 4
Формат : UTF-8
Идентификатор кодека : S_TEXT/UTF8
Идентификатор кодека/Информация : UTF-8 Plain Text
Продолжительность : 1 ч. 37 м.
Битрейт : 37 бит/сек
Count of elements : 502
Размер потока : 27,2 Кбайт (0%)
Язык : Russian
Default : Да
Forced : Нет
Текст #2
Идентификатор : 5
Формат : UTF-8
Идентификатор кодека : S_TEXT/UTF8
Идентификатор кодека/Информация : UTF-8 Plain Text
Продолжительность : 1 ч. 38 м.
Битрейт : 27 бит/сек
Count of elements : 481
Размер потока : 19,6 Кбайт (0%)
Язык : English
Default : Нет
Forced : Нет
Меню
00:00:00.000 : en:
00:05:00.000 : en:
00:10:00.000 : en:
00:15:00.000 : en:
00:20:00.000 : en:
00:25:00.000 : en:
00:30:00.000 : en:
00:35:00.000 : en:
00:40:00.000 : en:
00:45:00.000 : en:
00:50:00.000 : en:
00:55:00.000 : en:
01:00:00.000 : en:
01:05:00.000 : en:
01:10:00.000 : en:
01:15:00.000 : en:
01:20:00.000 : en:
01:25:00.000 : en:
01:30:00.000 : en:
01:35:00.000 : en:

Скриншоты

[Профиль] [ЛС]
Показать сообщения:    

Текущее время: Сегодня 12:30

Часовой пояс: GMT



Вы не можете начинать темы
Вы не можете отвечать на сообщения
Вы не можете редактировать свои сообщения
Вы не можете удалять свои сообщения
Вы не можете голосовать в опросах
Вы не можете прикреплять файлы к сообщениям
Вы не можете скачивать файлы