Собачий рай (2013) WEBRip 720p

 
Автор Сообщение

достали все ®

Пол:

Стаж: 1 год 8 месяцев

Сообщений: 6565



Награды: 12 (Подробнее)

Mega Seeder 3 (Количество: 1) Top Releaser 4 (Количество: 1) Mega Seeder 2 (Количество: 1)
Торрент-статистика

Создавать темы 19-Апр-2015 10:40

[Цитировать]

Информация о фильме
Название: Собачий рай
Год выхода: 2013
Жанр: семейный
Режиссер: Анна Чернакова
В ролях: Александр Кудрявцев, Анна Корнева, Марина Игнатова, Игорь Гордин, Александр Адабашьян, Наталья Ткаченко, Нина Семенова, Анастасия Фурса, Глафира Тарханова, Наталья Акимова, Лидия Байрашевская, Константин Воробьёв
О фильме: «Не спеши взрослеть...»
Действие фильма происходит в Москве в 1953 году в доме, что стоит на проезде Серова. Там живет 12-летняя девочка Таня, которая в этом году не уехала в летний лагерь. И в этот дом возвращается из дальней магаданской ссылки семья мальчика Мити. Он рассказывает Тане, что там, откуда приехала его семья, осталась любимая собака по кличке Гектор. Таня и Митя делают все, чтобы вернуть Гектора в Москву, а в ходе поисков всех возможных вариантов, узнают тайны семьи Митьки.

Страна: Россия
Студия: Всемирные Русские Студии
Продолжительность: 01:51:33
Перевод: Оригинал
Файл
Кодек: MPEG-4 AVC (MKV)
Качество: WEBRip 720p
Видео: AVC, 1280x720, 4100 Kbps
Звук: AC3, 2 ch, 256 kbps
Субтитры: английские (встроенные неотключаемые)

Скриншоты

MediaInfo

General
Unique ID : 119104864588194508089615772177260528222 (0x599AC334B96C25C2EED4BDB43972C25E)
Complete name : G:ДИСК 2�2.ФИЛЬМЫ СНГСобачий рай (2013)Sobachij.raj.2013.WEBRip 720p.mkv
Format : Matroska
Format version : Version 2
File size : 3.40 GiB
Duration : 1h 51mn
Overall bit rate : 4 359 Kbps
Writing application : XviD4PSP 6.0 / 54.29.105
Writing library : XviD4PSP 6.0 / 54.29.105
Video
ID : 1
Format : AVC
Format/Info : Advanced Video Codec
Format profile : High@L4.1
Format settings, CABAC : Yes
Format settings, ReFrames : 7 frames
Codec ID : V_MPEG4/ISO/AVC
Duration : 1h 51mn
Bit rate : 4 100 Kbps
Width : 1 280 pixels
Height : 720 pixels
Display aspect ratio : 16:9
Frame rate mode : Constant
Frame rate : 25.000 fps
Color space : YUV
Chroma subsampling : 4:2:0
Bit depth : 8 bits
Scan type : Progressive
Bits/(Pixel*Frame) : 0.178
Stream size : 3.13 GiB (92%)
Writing library : x264 core 128 r2216M 198a7ea
Encoding settings : cabac=1 / ref=8 / deblock=1:-3:-3 / analyse=0x3:0x133 / me=umh / subme=8 / psy=1 / psy_rd=1.00:0.20 / mixed_ref=1 / me_range=24 / chroma_me=1 / trellis=2 / 8x8dct=1 / cqm=0 / deadzone=21,11 / fast_pskip=1 / chroma_qp_offset=-3 / threads=4 / lookahead_threads=1 / sliced_threads=0 / nr=0 / decimate=1 / interlaced=0 / bluray_compat=0 / constrained_intra=0 / bframes=6 / b_pyramid=1 / b_adapt=2 / b_bias=0 / direct=3 / weightb=1 / open_gop=0 / weightp=2 / keyint=250 / keyint_min=23 / scenecut=40 / intra_refresh=0 / rc_lookahead=40 / rc=2pass / mbtree=1 / bitrate=4100 / ratetol=1.0 / qcomp=0.60 / qpmin=0 / qpmax=51 / qpstep=4 / cplxblur=20.0 / qblur=0.5 / ip_ratio=1.40 / aq=1:1.00
Default : Yes
Forced : No
Audio
ID : 2
Format : AC-3
Format/Info : Audio Coding 3
Mode extension : CM (complete main)
Format settings, Endianness : Big
Codec ID : A_AC3
Duration : 1h 51mn
Bit rate mode : Constant
Bit rate : 256 Kbps
Channel(s) : 2 channels
Channel positions : Front: L R
Sampling rate : 48.0 KHz
Bit depth : 16 bits
Compression mode : Lossy
Stream size : 204 MiB (6%)
Language : Russian
Default : Yes
Forced : No
[Профиль] [ЛС]
Показать сообщения:    

Текущее время: Сегодня 22:09

Часовой пояс: GMT



Вы не можете начинать темы
Вы не можете отвечать на сообщения
Вы не можете редактировать свои сообщения
Вы не можете удалять свои сообщения
Вы не можете голосовать в опросах
Вы не можете прикреплять файлы к сообщениям
Вы не можете скачивать файлы