Собака, спасшая Рождество / The Dog Who Saved Christmas (Майкл Фейфер / Michael Feifer) [2009, США, комедия, DVDRip] MVO (РенТВ) + Original Eng

 
Автор Сообщение

TorrentFilm ®

Пол:

Стаж: 2 года

Сообщений: 7741



Награды: Нет

Торрент-статистика

Создавать темы 15-Янв-2016 00:08

[Цитировать]

Собака, спасшая Рождество / The Dog Who Saved Christmas
Страна: США
Жанр: комедия
Год выпуска: 2009
Продолжительность: 01:28:27
Перевод: Профессиональный (многоголосый закадровый) РенТВ
Cубтитры: нет
Оригинальная аудиодорожка: английский
Режиссер: Майкл Фейфер / Michael Feifer
В ролях: Дин Кэйн
Гари Валентайн
Марио Лопез
Элиса Донован
Сьерра МакКормик
Чарли Стюарт
Джои Диаз
Минди Стерлинг
Эдриенн Барбо
Лана
Описание: В семье Баннистер пополнение - Зевс, желтый лабрадор, в котором семья нуждается меньше, чем в надежной сторожевой собаке. Однако, когда двое грабителей задались целью проникнуть в дом Баннистеров, пока они были в отъезде на Рождество, Зевс получает шанс стать героем.
Сэмпл: http://multi-up.com/1081100
Качество видео: DVDRip
Формат видео: AVI
Видео: MPEG4, XviD, 640x352 (16:9), 23.976 fps, 931 Kbps (0.172 bit/pixel)
Аудио: AC-3, 48.0 KHz, 2 ch, 192 Kbps, CBR - русский
Аудио 2: mp3, 48.0 KHz, 2 ch, 160 Kbps, CBR - английский (отдельным файлом)

MediaInfo

бщее
Полное имя : N:\Собака, спасшая Рождество.avi
Формат : AVI
Формат/Информация : Audio Video Interleave
Размер файла : 717 Мбайт
Продолжительность : 1 ч. 28 м.
Общий поток : 1133 Кбит/сек
Название фильма : Собака, спасшая Рождество / The Dog Who Saved Christmas (2009)
Программа кодирования : VirtualDubMod 1.5.10.2 (build 2540/release)
Библиотека кодирования : VirtualDubMod build 2540/release
Видео
Идентификатор : 0
Формат : MPEG-4 Visual
Профиль формата : Advanced Simple@L5
Параметр BVOP формата : 2
Параметр QPel формата : Нет
Параметр GMC формата : Без точки перехода
Параметр матрицы формата : Default (H.263)
Идентификатор кодека : XVID
Идентификатор кодека/Подсказка : XviD
Продолжительность : 1 ч. 28 м.
Битрейт : 931 Кбит/сек
Ширина : 640 пикселей
Высота : 352 пикселя
Соотношение сторон : 16:9
Частота кадров : 23,976 (23976/1000) кадра/сек
Цветовое пространство : YUV
Субдискретизация насыщенности : 4:2:0
Битовая глубина : 8 бит
Тип развёртки : Прогрессивная
Метод сжатия : С потерями
Бит/(Пиксели*Кадры) : 0.172
Размер потока : 589 Мбайт (82%)
Библиотека кодирования : XviD 1.2.1 (UTC 2008-12-04)
Аудио
Идентификатор : 1
Формат : AC-3
Формат/Информация : Audio Coding 3
Расширение режима : CM (complete main)
Параметр Endianness формата : Big
Идентификатор кодека : 2000
Продолжительность : 1 ч. 28 м.
Вид битрейта : Постоянный
Битрейт : 192 Кбит/сек
Каналы : 2 канала
Расположение каналов : Front: L R
Частота : 48,0 КГц
Частота кадров : 31,250 кадров/сек (1536 spf)
Метод сжатия : С потерями
Размер потока : 121 Мбайт (17%)
Выравнивание : Разделение по промежуткам
Продолжительность промежутка : 42 мс. (1,00 видеокадр)
Время предзагрузки промежутка : 500 мс.
Заголовок : Профессиональный (многоголосый закадровый) РенТВ

Скриншоты


[Профиль] [ЛС]

Создавать темы 12-Июн-2016 07:56 (спустя 4 месяца 28 дней)

Топик был перенесен из форума Фильмы 2011 года в форум Фильмы 2009 года
Russian Mafia
 
Кто просматривает тему:

Форум Тема Автор Размер
Кино СССР Верный Руслан / История караульной собаки (Владимир Хмельницкий) [1991, Драма, экранизация, DVB] reversefile 3.64 GB
Кино СССР Верный Руслан / История караульной собаки (Владимир Хмельницкий) [1991, Драма, экранизация, SATRip] reversefile 1.46 GB
Кино СССР Год собаки (1994) DVDRip Russian Mafia 2.16 GB
Флора и фауна Дорога из приюта / Pound Pups to Dog Stars (1-8 серии из 10) (Николай Гриффин / Nicola Griffin) [2013, Документальный, пристройство бездомных собак, TVRip] reversefile 2.51 GB
Зарубежные Кошки против собак: Месть Китти Галор в 3Д / Cats & Dogs: The Revenge of Kitty Galore 3D (Брэд Пейтон / Brad Peyton) [2010, Боевик, Комедия, Семейный, BDremux, 1080p] BD3D TorrentFilm 24.76 GB
Фильмы (HD DVD, Blu-ray и BDRemux) Отель для собак / Hotel for Dogs (2009) BDRemux 1080p | NOR Transfer | D, P2 Russian Mafia 24.53 GB
Фильмы (HD DVD, Blu-ray и BDRemux) Повелитель собак / Leviatán (1984) BDRemux 1080p от Sem-te | P2, A Russian Mafia 23.01 GB
Фильмы (HD DVD, Blu-ray и BDRemux) Приключения Шерлока Холмса и доктора Ватсона. Собака Баскервилей (Игорь Масленников) [1981, СССР, Детектив, полная реставрация, Blu-ray disc 1080p] painkiller 35.98 GB
Показать сообщения:    

Текущее время: Сегодня 04:17

Часовой пояс: GMT



Вы не можете начинать темы
Вы не можете отвечать на сообщения
Вы не можете редактировать свои сообщения
Вы не можете удалять свои сообщения
Вы не можете голосовать в опросах
Вы не можете прикреплять файлы к сообщениям
Вы не можете скачивать файлы