Собака в доме (Максим Шерман, Екатерина Вещева) (22 серии) [2013, познавательная передача, TVRip]

 
Автор Сообщение

reversefile ®

Пол:

Стаж: 4 года 5 месяцев

Сообщений: 842

Откуда: ReverseFile.org



Награды: Нет

Торрент-статистика

Создавать темы 11-Авг-2014 06:20

[Цитировать]

Собака в доме
Дата/Год выпуска: 2013
Страна: Россия, Телекомпания «Контраст»
Жанр: познавательная передача
Продолжительность: 22 х ~00:23:00
Перевод: Не требуется
Режиссер: Максим Шерман, Екатерина Вещева
Ведущий: Андрей Шувалов
Телеканал: Домашний
Описание: Вы давно мечтали о собаке и, наконец, заветный питомец живет вместе с вами. Вам казалось, что с ним не будет никаких проблем, и собака будет доставлять вам только удовольствие. Но спустя какое-то время выясняется, что она кусается или бросается на людей, воет по ночам, грызёт тапки, пристаёт к прохожим, ворует еду со стола и вообще ведет себя так, как ей хочется. Если питомец совершенно отбился от рук, если четвероногий друг превращается во врага, если между вами и вашей собакой пробежала черная кошка…. Если Вы устали от этих проблем, но найти общий язык со своим питомцем у вас не получается… Тогда на помощь придет кинолог и собачий психолог Андрей Шувалов. Он объяснит, почему ваша собака ведет себя не так, как вам хочется, расскажет, о чём она думает и поможет решить любую проблему. Ведь главное - это научиться понимать свою собаку и тогда ее поведением можно будет управлять.
В каждой серии Андрей будет приходить домой к владельцам собак, выяснять, что беспокоит хозяев и шаг за шагом рассказывать, как справиться с проблемой. Если ваша собака плохо себя ведет, это еще не значит, что в этом ее вина. Часто сами владельцы неверно воспитывают своих любимцев, а потом пожинают плоды своего же воспитания. Программа «Собака в доме» поможет избежать ошибок, решить любые проблемы с собакой: от правильного воспитания до красивой стрижки и здоровья. Сложных собак не бывает, бывает плохое воспитание!
Сэмпл: http://www.sendspace.com/file/nsea0z
качество: TVRip
формат: AVI
Видео: XviD, 720х544 пикселей, ~1100 Кбит/сек, 25,000 кадров/сек, 0.112 Бит/(Пиксели*Кадры)
Аудио: MP3, 128 Кбит/сек, 48,0 КГц, 2 канала

Список выпусков/серий

в каждом выпуске по 2 сюжета и советы ветеринара,
из всех серий удалена рубрика "ищу хозяина" (за давностью она уже не актуальна)
01: Наталья, Николай и Марта, Фрося (у каждого своя собака, собак надо научить жить в одной квартире) + Инна и Марлен (лабрадор, разбалована, не слушает команд дома)
02: Лера и Уна (лабрадор, избалована: ворует еду и попрошайничает) + семья Хондыч и Джеф (рычит на хозяев)
03: Александр и Айна (овчарка, пуглива) + Люба и Дакота (метис, агрессия к гостям и другим собакам)
04: Елена и 3 бордосских дога и 1 английский дог (не слушают команд на возвращение к хозяйке) + Настя и Пикси (бордер-колли, не доработаны команды)
05: семья Черемисовых и Нора (хаски, очень много энергии) + Наталья и Джессика (лабрадор, выпрыгивает из машины)
06: семья Хомских и Лилу (собака всё грызёт в доме) + Андрей и Глаша (средне-азиатская овчарка, нет охраны)
07: Надежда, Александр и Бахус (найдёныш, разбалованный пёс) + Елена и 2 акиты и щенок (нужны советы по дрессировке)
08: Катя и Джордж (английский бульдог, грызёт всё подряд) + Настя, Александр и Фред (из приюта, подбирает всё на улице)
09: Юля и Челси (овчарка, нет охраны и убегает на улицу) + Людмила и Трикси (йоркширский терьер, недоработка команд)
10: Даша и Букля (из приюта, ест на улице и т.д.) + семья Хариных и Чикита (веймаранер, правильные игры собаки с детьми)
11: Светлана, Андрей и Майли (джек-рассел терьер, щенок не дрессирован) + Елена и Индевр (шпиц, гипер активная сексуальность)
12: Вика, Али и Даниэль (избалованная собака) + Юля и 2 таксы (не слушают хозяев на улице)
13: Настя и Крошка (чи-хуа-хуа, попрошайничает) + Катя и 2 найдёныша (агрессивное поведение на улице)
14: Ирина и 3 собаки (йоркширский терьер, немецкая овчарка, бельгийская овчарка; нет правильной охраны территории) + Ирина, Евгений и 7 такс (гадят в доме)
15: Яна и Барт (английский бульдог, на улице не слушает хозяйку) + семья Либенсон и Джес (немецкая овчарка, агрессивное поведение в доме)
16: Дима и Рой (ротвелер, нет охраны территории) + Светлан и Тик (самоед, грызёт мебель)
17: Марина, Ольга и Тедди (чи-хуа-хуа, агрессивное поведение к хозяйке) + Александр, Андрей и Бетти (найдёныш, любовь к посторонним)
18: Татьяна и Джина (лабрадор, не везде слушается команд) + Андрей Шувалов, его сын Иван и Рико (бельгийская овчарка, отработка защиты машины)
19: Саша и Фаби и Шадо (американская акита, не отработана команда ко мне) + Нина, Илья и Бекки (овчарка, отработка команд)
20: Галина и Эля (бигль, ест всё, что найдёт) + Ольга, Максим и Хаммер (шпиц, повышеная активность к сукам)
21: Влад, Таня и Эмели (английский бульдог, сверхактивное поведение) + Александр и Тео (колли, недоработка команд)
22: Марина и Арлетта (йоркширский терьер, агрессивное поведение) + Лариса и Жорик (такса, 3 месяца, повышенная активность)

MediaInfo

ОбщееПолное имя : C:\фильмы\02 возможно для раздачи\собака в доме (домашний, обучение)\Собака в доме (2013г)\собака в доме-01серия.aviФормат : AVIФормат/Информация : Audio Video InterleaveРазмер файла : 207 МбайтПродолжительность : 23 м.Общий поток : 1238 Кбит/сек
ВидеоИдентификатор : 0Формат : MPEG-4 VisualПрофиль формата : Advanced Simple@L4Параметр BVOP формата : НетПараметр QPel формата : НетПараметр GMC формата : Без точки переходаПараметр матрицы формата : Default (H.263)Идентификатор кодека : XVIDИдентификатор кодека/Подсказка : XviDПродолжительность : 23 м.Битрейт : 1097 Кбит/секШирина : 720 пикселейВысота : 544 пикселяСоотношение сторон : 4:3Частота кадров : 25,000 кадров/секЦветовое пространство : YUVСубдискретизация насыщенности : 4:2:0Битовая глубина : 8 битТип развёртки : ПрогрессивнаяМетод сжатия : С потерямиБит/(Пиксели*Кадры) : 0.112Размер потока : 183 Мбайт (89%)
АудиоИдентификатор : 1Формат : MPEG AudioВерсия формата : Version 1Профиль формата : Layer 3Идентификатор кодека : 55Идентификатор кодека/Подсказка : MP3Продолжительность : 23 м.Вид битрейта : ПостоянныйБитрейт : 128 Кбит/секКаналы : 2 каналаЧастота : 48,0 КГцМетод сжатия : С потерямиРазмер потока : 21,4 Мбайт (10%)Выравнивание : Разделение по промежуткамПродолжительность промежутка : 24 мс. (0,60 видеокадр)
ОбщееПолное имя : C:\фильмы\02 возможно для раздачи\собака в доме (домашний, обучение)\Собака в доме (2013г)\собака в доме-02серия.aviФормат : AVIФормат/Информация : Audio Video InterleaveРазмер файла : 209 МбайтПродолжительность : 23 м.Общий поток : 1238 Кбит/секБиблиотека кодирования : VirtualDub build 32817/release
ВидеоИдентификатор : 0Формат : MPEG-4 VisualПрофиль формата : Advanced Simple@L4Параметр BVOP формата : НетПараметр QPel формата : НетПараметр GMC формата : Без точки переходаПараметр матрицы формата : Default (H.263)Идентификатор кодека : XVIDИдентификатор кодека/Подсказка : XviDПродолжительность : 23 м.Битрейт : 1100 Кбит/секШирина : 720 пикселейВысота : 544 пикселяСоотношение сторон : 4:3Частота кадров : 25,000 кадров/секЦветовое пространство : YUVСубдискретизация насыщенности : 4:2:0Битовая глубина : 8 битТип развёртки : ПрогрессивнаяМетод сжатия : С потерямиБит/(Пиксели*Кадры) : 0.112Размер потока : 185 Мбайт (89%)
АудиоИдентификатор : 1Формат : MPEG AudioВерсия формата : Version 1Профиль формата : Layer 3Идентификатор кодека : 55Идентификатор кодека/Подсказка : MP3Продолжительность : 23 м.Вид битрейта : ПостоянныйБитрейт : 128 Кбит/секКаналы : 2 каналаЧастота : 48,0 КГцМетод сжатия : С потерямиРазмер потока : 21,6 Мбайт (10%)Выравнивание : Разделение по промежуткамПродолжительность промежутка : 40 мс. (1,00 видеокадр)Время предзагрузки промежутка : 500 мс.
ОбщееПолное имя : C:\фильмы\02 возможно для раздачи\собака в доме (домашний, обучение)\Собака в доме (2013г)\собака в доме-03серия.aviФормат : AVIФормат/Информация : Audio Video InterleaveРазмер файла : 208 МбайтПродолжительность : 23 м.Общий поток : 1238 Кбит/секБиблиотека кодирования : VirtualDub build 32817/release
ВидеоИдентификатор : 0Формат : MPEG-4 VisualПрофиль формата : Advanced Simple@L4Параметр BVOP формата : НетПараметр QPel формата : НетПараметр GMC формата : Без точки переходаПараметр матрицы формата : Default (H.263)Идентификатор кодека : XVIDИдентификатор кодека/Подсказка : XviDПродолжительность : 23 м.Битрейт : 1100 Кбит/секШирина : 720 пикселейВысота : 544 пикселяСоотношение сторон : 4:3Частота кадров : 25,000 кадров/секЦветовое пространство : YUVСубдискретизация насыщенности : 4:2:0Битовая глубина : 8 битТип развёртки : ПрогрессивнаяМетод сжатия : С потерямиБит/(Пиксели*Кадры) : 0.112Размер потока : 185 Мбайт (89%)
АудиоИдентификатор : 1Формат : MPEG AudioВерсия формата : Version 1Профиль формата : Layer 3Идентификатор кодека : 55Идентификатор кодека/Подсказка : MP3Продолжительность : 23 м.Вид битрейта : ПостоянныйБитрейт : 128 Кбит/секКаналы : 2 каналаЧастота : 48,0 КГцМетод сжатия : С потерямиЗадержка видео : 8 мс.Размер потока : 21,5 Мбайт (10%)Выравнивание : Разделение по промежуткамПродолжительность промежутка : 40 мс. (1,00 видеокадр)Время предзагрузки промежутка : 500 мс.
ОбщееПолное имя : C:\фильмы\02 возможно для раздачи\собака в доме (домашний, обучение)\Собака в доме (2013г)\собака в доме-04серия.aviФормат : AVIФормат/Информация : Audio Video InterleaveРазмер файла : 206 МбайтПродолжительность : 23 м.Общий поток : 1238 Кбит/секБиблиотека кодирования : VirtualDub build 32817/release
ВидеоИдентификатор : 0Формат : MPEG-4 VisualПрофиль формата : Advanced Simple@L4Параметр BVOP формата : НетПараметр QPel формата : НетПараметр GMC формата : Без точки переходаПараметр матрицы формата : Default (H.263)Идентификатор кодека : XVIDИдентификатор кодека/Подсказка : XviDПродолжительность : 23 м.Битрейт : 1100 Кбит/секШирина : 720 пикселейВысота : 544 пикселяСоотношение сторон : 4:3Частота кадров : 25,000 кадров/секЦветовое пространство : YUVСубдискретизация насыщенности : 4:2:0Битовая глубина : 8 битТип развёртки : ПрогрессивнаяМетод сжатия : С потерямиБит/(Пиксели*Кадры) : 0.112Размер потока : 183 Мбайт (89%)
АудиоИдентификатор : 1Формат : MPEG AudioВерсия формата : Version 1Профиль формата : Layer 3Идентификатор кодека : 55Идентификатор кодека/Подсказка : MP3Продолжительность : 23 м.Вид битрейта : ПостоянныйБитрейт : 128 Кбит/секКаналы : 2 каналаЧастота : 48,0 КГцМетод сжатия : С потерямиРазмер потока : 21,3 Мбайт (10%)Выравнивание : Разделение по промежуткамПродолжительность промежутка : 40 мс. (1,00 видеокадр)Время предзагрузки промежутка : 500 мс.
ОбщееПолное имя : C:\фильмы\02 возможно для раздачи\собака в доме (домашний, обучение)\Собака в доме (2013г)\собака в доме-05серия.aviФормат : AVIФормат/Информация : Audio Video InterleaveРазмер файла : 202 МбайтПродолжительность : 22 м.Общий поток : 1238 Кбит/сек
ВидеоИдентификатор : 0Формат : MPEG-4 VisualПрофиль формата : Advanced Simple@L4Параметр BVOP формата : НетПараметр QPel формата : НетПараметр GMC формата : Без точки переходаПараметр матрицы формата : Default (H.263)Идентификатор кодека : XVIDИдентификатор кодека/Подсказка : XviDПродолжительность : 22 м.Битрейт : 1100 Кбит/секШирина : 720 пикселейВысота : 544 пикселяСоотношение сторон : 4:3Частота кадров : 25,000 кадров/секЦветовое пространство : YUVСубдискретизация насыщенности : 4:2:0Битовая глубина : 8 битТип развёртки : ПрогрессивнаяМетод сжатия : С потерямиБит/(Пиксели*Кадры) : 0.112Размер потока : 180 Мбайт (89%)
АудиоИдентификатор : 1Формат : MPEG AudioВерсия формата : Version 1Профиль формата : Layer 3Идентификатор кодека : 55Идентификатор кодека/Подсказка : MP3Продолжительность : 22 м.Продолжительность оригинала : 22 м.Вид битрейта : ПостоянныйБитрейт : 128 Кбит/секКаналы : 2 каналаЧастота : 48,0 КГцМетод сжатия : С потерямиРазмер потока : 20,9 Мбайт (10%)Выравнивание : Соединение по промежуткамПродолжительность промежутка : 40 мс. (1,00 видеокадр)
ОбщееПолное имя : C:\фильмы\02 возможно для раздачи\собака в доме (домашний, обучение)\Собака в доме (2013г)\собака в доме-06серия.aviФормат : AVIФормат/Информация : Audio Video InterleaveРазмер файла : 202 МбайтПродолжительность : 22 м.Общий поток : 1237 Кбит/сек
ВидеоИдентификатор : 0Формат : MPEG-4 VisualПрофиль формата : Advanced Simple@L4Параметр BVOP формата : НетПараметр QPel формата : НетПараметр GMC формата : Без точки переходаПараметр матрицы формата : Default (H.263)Идентификатор кодека : XVIDИдентификатор кодека/Подсказка : XviDПродолжительность : 22 м.Битрейт : 1100 Кбит/секШирина : 720 пикселейВысота : 544 пикселяСоотношение сторон : 4:3Частота кадров : 25,000 кадров/секЦветовое пространство : YUVСубдискретизация насыщенности : 4:2:0Битовая глубина : 8 битТип развёртки : ПрогрессивнаяМетод сжатия : С потерямиБит/(Пиксели*Кадры) : 0.112Размер потока : 180 Мбайт (89%)
АудиоИдентификатор : 1Формат : MPEG AudioВерсия формата : Version 1Профиль формата : Layer 3Идентификатор кодека : 55Идентификатор кодека/Подсказка : MP3Продолжительность : 22 м.Продолжительность оригинала : 22 м.Вид битрейта : ПостоянныйБитрейт : 128 Кбит/секКаналы : 2 каналаЧастота : 48,0 КГцМетод сжатия : С потерямиРазмер потока : 20,9 Мбайт (10%)Выравнивание : Соединение по промежуткамПродолжительность промежутка : 40 мс. (1,00 видеокадр)
ОбщееПолное имя : C:\фильмы\02 возможно для раздачи\собака в доме (домашний, обучение)\Собака в доме (2013г)\собака в доме-07серия.aviФормат : AVIФормат/Информация : Audio Video InterleaveРазмер файла : 207 МбайтПродолжительность : 23 м.Общий поток : 1238 Кбит/секБиблиотека кодирования : VirtualDub build 32817/release
ВидеоИдентификатор : 0Формат : MPEG-4 VisualПрофиль формата : Advanced Simple@L4Параметр BVOP формата : НетПараметр QPel формата : НетПараметр GMC формата : Без точки переходаПараметр матрицы формата : Default (H.263)Идентификатор кодека : XVIDИдентификатор кодека/Подсказка : XviDПродолжительность : 23 м.Битрейт : 1100 Кбит/секШирина : 720 пикселейВысота : 544 пикселяСоотношение сторон : 4:3Частота кадров : 25,000 кадров/секЦветовое пространство : YUVСубдискретизация насыщенности : 4:2:0Битовая глубина : 8 битТип развёртки : ПрогрессивнаяМетод сжатия : С потерямиБит/(Пиксели*Кадры) : 0.112Размер потока : 184 Мбайт (89%)
АудиоИдентификатор : 1Формат : MPEG AudioВерсия формата : Version 1Профиль формата : Layer 3Идентификатор кодека : 55Идентификатор кодека/Подсказка : MP3Продолжительность : 23 м.Вид битрейта : ПостоянныйБитрейт : 128 Кбит/секКаналы : 2 каналаЧастота : 48,0 КГцМетод сжатия : С потерямиЗадержка видео : 16 мс.Размер потока : 21,4 Мбайт (10%)Выравнивание : Разделение по промежуткамПродолжительность промежутка : 40 мс. (1,00 видеокадр)Время предзагрузки промежутка : 500 мс.
ОбщееПолное имя : C:\фильмы\02 возможно для раздачи\собака в доме (домашний, обучение)\Собака в доме (2013г)\собака в доме-08серия.aviФормат : AVIФормат/Информация : Audio Video InterleaveРазмер файла : 203 МбайтПродолжительность : 22 м.Общий поток : 1238 Кбит/секБиблиотека кодирования : VirtualDub build 32817/release
ВидеоИдентификатор : 0Формат : MPEG-4 VisualПрофиль формата : Advanced Simple@L4Параметр BVOP формата : НетПараметр QPel формата : НетПараметр GMC формата : Без точки переходаПараметр матрицы формата : Default (H.263)Идентификатор кодека : XVIDИдентификатор кодека/Подсказка : XviDПродолжительность : 22 м.Битрейт : 1100 Кбит/секШирина : 720 пикселейВысота : 544 пикселяСоотношение сторон : 4:3Частота кадров : 25,000 кадров/секЦветовое пространство : YUVСубдискретизация насыщенности : 4:2:0Битовая глубина : 8 битТип развёртки : ПрогрессивнаяМетод сжатия : С потерямиБит/(Пиксели*Кадры) : 0.112Размер потока : 181 Мбайт (89%)
АудиоИдентификатор : 1Формат : MPEG AudioВерсия формата : Version 1Профиль формата : Layer 3Идентификатор кодека : 55Идентификатор кодека/Подсказка : MP3Продолжительность : 22 м.Вид битрейта : ПостоянныйБитрейт : 128 Кбит/секКаналы : 2 каналаЧастота : 48,0 КГцМетод сжатия : С потерямиРазмер потока : 21,0 Мбайт (10%)Выравнивание : Разделение по промежуткамПродолжительность промежутка : 40 мс. (1,00 видеокадр)Время предзагрузки промежутка : 500 мс.
ОбщееПолное имя : C:\фильмы\02 возможно для раздачи\собака в доме (домашний, обучение)\Собака в доме (2013г)\собака в доме-09серия.aviФормат : AVIФормат/Информация : Audio Video InterleaveРазмер файла : 203 МбайтПродолжительность : 23 м.Общий поток : 1235 Кбит/сек
ВидеоИдентификатор : 0Формат : MPEG-4 VisualПрофиль формата : Advanced Simple@L4Параметр BVOP формата : НетПараметр QPel формата : НетПараметр GMC формата : Без точки переходаПараметр матрицы формата : Default (H.263)Идентификатор кодека : XVIDИдентификатор кодека/Подсказка : XviDПродолжительность : 23 м.Битрейт : 1097 Кбит/секШирина : 720 пикселейВысота : 544 пикселяСоотношение сторон : 4:3Частота кадров : 25,000 кадров/секЦветовое пространство : YUVСубдискретизация насыщенности : 4:2:0Битовая глубина : 8 битТип развёртки : ПрогрессивнаяМетод сжатия : С потерямиБит/(Пиксели*Кадры) : 0.112Размер потока : 181 Мбайт (89%)
АудиоИдентификатор : 1Формат : MPEG AudioВерсия формата : Version 1Профиль формата : Layer 3Идентификатор кодека : 55Идентификатор кодека/Подсказка : MP3Продолжительность : 23 м.Продолжительность оригинала : 23 м.Вид битрейта : ПостоянныйБитрейт : 128 Кбит/секКаналы : 2 каналаЧастота : 48,0 КГцМетод сжатия : С потерямиРазмер потока : 21,1 Мбайт (10%)Выравнивание : Соединение по промежуткамПродолжительность промежутка : 40 мс. (1,00 видеокадр)
ОбщееПолное имя : C:\фильмы\02 возможно для раздачи\собака в доме (домашний, обучение)\Собака в доме (2013г)\собака в доме-10серия.aviФормат : AVIФормат/Информация : Audio Video InterleaveРазмер файла : 205 МбайтПродолжительность : 23 м.Общий поток : 1238 Кбит/сек
ВидеоИдентификатор : 0Формат : MPEG-4 VisualПрофиль формата : Advanced Simple@L4Параметр BVOP формата : НетПараметр QPel формата : НетПараметр GMC формата : Без точки переходаПараметр матрицы формата : Default (H.263)Идентификатор кодека : XVIDИдентификатор кодека/Подсказка : XviDПродолжительность : 23 м.Битрейт : 1101 Кбит/секШирина : 720 пикселейВысота : 544 пикселяСоотношение сторон : 4:3Частота кадров : 25,000 кадров/секЦветовое пространство : YUVСубдискретизация насыщенности : 4:2:0Битовая глубина : 8 битТип развёртки : ПрогрессивнаяМетод сжатия : С потерямиБит/(Пиксели*Кадры) : 0.112Размер потока : 183 Мбайт (89%)
АудиоИдентификатор : 1Формат : MPEG AudioВерсия формата : Version 1Профиль формата : Layer 3Идентификатор кодека : 55Идентификатор кодека/Подсказка : MP3Продолжительность : 23 м.Вид битрейта : ПостоянныйБитрейт : 128 Кбит/секКаналы : 2 каналаЧастота : 48,0 КГцМетод сжатия : С потерямиРазмер потока : 21,2 Мбайт (10%)Выравнивание : Соединение по промежуткамПродолжительность промежутка : 40 мс. (1,00 видеокадр)
ОбщееПолное имя : C:\фильмы\02 возможно для раздачи\собака в доме (домашний, обучение)\Собака в доме (2013г)\собака в доме-11серия.aviФормат : AVIФормат/Информация : Audio Video InterleaveРазмер файла : 204 МбайтПродолжительность : 23 м.Общий поток : 1237 Кбит/сек
ВидеоИдентификатор : 0Формат : MPEG-4 VisualПрофиль формата : Advanced Simple@L4Параметр BVOP формата : НетПараметр QPel формата : НетПараметр GMC формата : Без точки переходаПараметр матрицы формата : Default (H.263)Идентификатор кодека : XVIDИдентификатор кодека/Подсказка : XviDПродолжительность : 23 м.Битрейт : 1099 Кбит/секШирина : 720 пикселейВысота : 544 пикселяСоотношение сторон : 4:3Частота кадров : 25,000 кадров/секЦветовое пространство : YUVСубдискретизация насыщенности : 4:2:0Битовая глубина : 8 битТип развёртки : ПрогрессивнаяМетод сжатия : С потерямиБит/(Пиксели*Кадры) : 0.112Размер потока : 181 Мбайт (89%)Библиотека кодирования : Lavc53.42.0
АудиоИдентификатор : 1Формат : MPEG AudioВерсия формата : Version 1Профиль формата : Layer 3Идентификатор кодека : 55Идентификатор кодека/Подсказка : MP3Продолжительность : 23 м.Продолжительность оригинала : 23 м.Вид битрейта : ПостоянныйБитрейт : 128 Кбит/секКаналы : 2 каналаЧастота : 48,0 КГцМетод сжатия : С потерямиРазмер потока : 21,1 Мбайт (10%)Выравнивание : Соединение по промежуткамПродолжительность промежутка : 40 мс. (1,00 видеокадр)
ОбщееПолное имя : C:\фильмы\02 возможно для раздачи\собака в доме (домашний, обучение)\Собака в доме (2013г)\собака в доме-12серия.aviФормат : AVIФормат/Информация : Audio Video InterleaveРазмер файла : 202 МбайтПродолжительность : 22 м.Общий поток : 1240 Кбит/сек
ВидеоИдентификатор : 0Формат : MPEG-4 VisualПрофиль формата : Advanced Simple@L4Параметр BVOP формата : НетПараметр QPel формата : НетПараметр GMC формата : Без точки переходаПараметр матрицы формата : Default (H.263)Идентификатор кодека : XVIDИдентификатор кодека/Подсказка : XviDПродолжительность : 22 м.Битрейт : 1099 Кбит/секШирина : 720 пикселейВысота : 544 пикселяСоотношение сторон : 4:3Частота кадров : 25,000 кадров/секЦветовое пространство : YUVСубдискретизация насыщенности : 4:2:0Битовая глубина : 8 битТип развёртки : ПрогрессивнаяМетод сжатия : С потерямиБит/(Пиксели*Кадры) : 0.112Размер потока : 179 Мбайт (89%)
АудиоИдентификатор : 1Формат : MPEG AudioВерсия формата : Version 1Профиль формата : Layer 3Идентификатор кодека : 55Идентификатор кодека/Подсказка : MP3Продолжительность : 22 м.Вид битрейта : ПостоянныйБитрейт : 128 Кбит/секКаналы : 2 каналаЧастота : 48,0 КГцМетод сжатия : С потерямиРазмер потока : 20,9 Мбайт (10%)Выравнивание : Разделение по промежуткамПродолжительность промежутка : 24 мс. (0,60 видеокадр)
ОбщееПолное имя : C:\фильмы\02 возможно для раздачи\собака в доме (домашний, обучение)\Собака в доме (2013г)\собака в доме-13серия.aviФормат : AVIФормат/Информация : Audio Video InterleaveРазмер файла : 207 МбайтПродолжительность : 23 м.Общий поток : 1240 Кбит/сек
ВидеоИдентификатор : 0Формат : MPEG-4 VisualПрофиль формата : Advanced Simple@L4Параметр BVOP формата : НетПараметр QPel формата : НетПараметр GMC формата : Без точки переходаПараметр матрицы формата : Default (H.263)Идентификатор кодека : XVIDИдентификатор кодека/Подсказка : XviDПродолжительность : 23 м.Битрейт : 1099 Кбит/секШирина : 720 пикселейВысота : 544 пикселяСоотношение сторон : 4:3Частота кадров : 25,000 кадров/секЦветовое пространство : YUVСубдискретизация насыщенности : 4:2:0Битовая глубина : 8 битТип развёртки : ПрогрессивнаяМетод сжатия : С потерямиБит/(Пиксели*Кадры) : 0.112Размер потока : 184 Мбайт (89%)
АудиоИдентификатор : 1Формат : MPEG AudioВерсия формата : Version 1Профиль формата : Layer 3Идентификатор кодека : 55Идентификатор кодека/Подсказка : MP3Продолжительность : 23 м.Вид битрейта : ПостоянныйБитрейт : 128 Кбит/секКаналы : 2 каналаЧастота : 48,0 КГцМетод сжатия : С потерямиРазмер потока : 21,4 Мбайт (10%)Выравнивание : Разделение по промежуткамПродолжительность промежутка : 24 мс. (0,60 видеокадр)
ОбщееПолное имя : C:\фильмы\02 возможно для раздачи\собака в доме (домашний, обучение)\Собака в доме (2013г)\собака в доме-14серия.aviФормат : AVIФормат/Информация : Audio Video InterleaveРазмер файла : 205 МбайтПродолжительность : 23 м.Общий поток : 1235 Кбит/сек
ВидеоИдентификатор : 0Формат : MPEG-4 VisualПрофиль формата : Advanced Simple@L4Параметр BVOP формата : НетПараметр QPel формата : НетПараметр GMC формата : Без точки переходаПараметр матрицы формата : Default (H.263)Идентификатор кодека : XVIDИдентификатор кодека/Подсказка : XviDПродолжительность : 23 м.Битрейт : 1098 Кбит/секШирина : 720 пикселейВысота : 544 пикселяСоотношение сторон : 4:3Частота кадров : 25,000 кадров/секЦветовое пространство : YUVСубдискретизация насыщенности : 4:2:0Битовая глубина : 8 битТип развёртки : ПрогрессивнаяМетод сжатия : С потерямиБит/(Пиксели*Кадры) : 0.112Размер потока : 182 Мбайт (89%)Библиотека кодирования : Lavc53.42.0
АудиоИдентификатор : 1Формат : MPEG AudioВерсия формата : Version 1Профиль формата : Layer 3Идентификатор кодека : 55Идентификатор кодека/Подсказка : MP3Продолжительность : 23 м.Продолжительность оригинала : 23 м.Вид битрейта : ПостоянныйБитрейт : 128 Кбит/секКаналы : 2 каналаЧастота : 48,0 КГцМетод сжатия : С потерямиРазмер потока : 21,3 Мбайт (10%)Выравнивание : Соединение по промежуткамПродолжительность промежутка : 40 мс. (1,00 видеокадр)
ОбщееПолное имя : C:\фильмы\02 возможно для раздачи\собака в доме (домашний, обучение)\Собака в доме (2013г)\собака в доме-15серия.aviФормат : AVIФормат/Информация : Audio Video InterleaveРазмер файла : 210 МбайтПродолжительность : 23 м.Общий поток : 1236 Кбит/сек
ВидеоИдентификатор : 0Формат : MPEG-4 VisualПрофиль формата : Advanced Simple@L4Параметр BVOP формата : НетПараметр QPel формата : НетПараметр GMC формата : Без точки переходаПараметр матрицы формата : Default (H.263)Идентификатор кодека : XVIDИдентификатор кодека/Подсказка : XviDПродолжительность : 23 м.Битрейт : 1099 Кбит/секШирина : 720 пикселейВысота : 544 пикселяСоотношение сторон : 4:3Частота кадров : 25,000 кадров/секЦветовое пространство : YUVСубдискретизация насыщенности : 4:2:0Битовая глубина : 8 битТип развёртки : ПрогрессивнаяМетод сжатия : С потерямиБит/(Пиксели*Кадры) : 0.112Размер потока : 186 Мбайт (89%)
АудиоИдентификатор : 1Формат : MPEG AudioВерсия формата : Version 1Профиль формата : Layer 3Идентификатор кодека : 55Идентификатор кодека/Подсказка : MP3Продолжительность : 23 м.Продолжительность оригинала : 23 м.Вид битрейта : ПостоянныйБитрейт : 128 Кбит/секКаналы : 2 каналаЧастота : 48,0 КГцМетод сжатия : С потерямиРазмер потока : 21,7 Мбайт (10%)Выравнивание : Соединение по промежуткамПродолжительность промежутка : 40 мс. (1,00 видеокадр)
ОбщееПолное имя : C:\фильмы\02 возможно для раздачи\собака в доме (домашний, обучение)\Собака в доме (2013г)\собака в доме-16серия.aviФормат : AVIФормат/Информация : Audio Video InterleaveРазмер файла : 206 МбайтПродолжительность : 23 м.Общий поток : 1237 Кбит/сек
ВидеоИдентификатор : 0Формат : MPEG-4 VisualПрофиль формата : Advanced Simple@L4Параметр BVOP формата : НетПараметр QPel формата : НетПараметр GMC формата : Без точки переходаПараметр матрицы формата : Default (H.263)Идентификатор кодека : XVIDИдентификатор кодека/Подсказка : XviDПродолжительность : 23 м.Битрейт : 1099 Кбит/секШирина : 720 пикселейВысота : 544 пикселяСоотношение сторон : 4:3Частота кадров : 25,000 кадров/секЦветовое пространство : YUVСубдискретизация насыщенности : 4:2:0Битовая глубина : 8 битТип развёртки : ПрогрессивнаяМетод сжатия : С потерямиБит/(Пиксели*Кадры) : 0.112Размер потока : 183 Мбайт (89%)
АудиоИдентификатор : 1Формат : MPEG AudioВерсия формата : Version 1Профиль формата : Layer 3Идентификатор кодека : 55Идентификатор кодека/Подсказка : MP3Продолжительность : 23 м.Продолжительность оригинала : 23 м.Вид битрейта : ПостоянныйБитрейт : 128 Кбит/секКаналы : 2 каналаЧастота : 48,0 КГцМетод сжатия : С потерямиРазмер потока : 21,3 Мбайт (10%)Выравнивание : Соединение по промежуткамПродолжительность промежутка : 40 мс. (1,00 видеокадр)
ОбщееПолное имя : C:\фильмы\02 возможно для раздачи\собака в доме (домашний, обучение)\Собака в доме (2013г)\собака в доме-17серия.aviФормат : AVIФормат/Информация : Audio Video InterleaveРазмер файла : 203 МбайтПродолжительность : 22 м.Общий поток : 1236 Кбит/сек
ВидеоИдентификатор : 0Формат : MPEG-4 VisualПрофиль формата : Advanced Simple@L4Параметр BVOP формата : НетПараметр QPel формата : НетПараметр GMC формата : Без точки переходаПараметр матрицы формата : Default (H.263)Идентификатор кодека : XVIDИдентификатор кодека/Подсказка : XviDПродолжительность : 22 м.Битрейт : 1098 Кбит/секШирина : 720 пикселейВысота : 544 пикселяСоотношение сторон : 4:3Частота кадров : 25,000 кадров/секЦветовое пространство : YUVСубдискретизация насыщенности : 4:2:0Битовая глубина : 8 битТип развёртки : ПрогрессивнаяМетод сжатия : С потерямиБит/(Пиксели*Кадры) : 0.112Размер потока : 180 Мбайт (89%)
АудиоИдентификатор : 1Формат : MPEG AudioВерсия формата : Version 1Профиль формата : Layer 3Идентификатор кодека : 55Идентификатор кодека/Подсказка : MP3Продолжительность : 22 м.Продолжительность оригинала : 22 м.Вид битрейта : ПостоянныйБитрейт : 128 Кбит/секКаналы : 2 каналаЧастота : 48,0 КГцМетод сжатия : С потерямиРазмер потока : 21,0 Мбайт (10%)Выравнивание : Соединение по промежуткамПродолжительность промежутка : 40 мс. (1,00 видеокадр)
ОбщееПолное имя : C:\фильмы\02 возможно для раздачи\собака в доме (домашний, обучение)\Собака в доме (2013г)\собака в доме-18серия.aviФормат : AVIФормат/Информация : Audio Video InterleaveРазмер файла : 206 МбайтПродолжительность : 23 м.Общий поток : 1235 Кбит/сек
ВидеоИдентификатор : 0Формат : MPEG-4 VisualПрофиль формата : Advanced Simple@L4Параметр BVOP формата : НетПараметр QPel формата : НетПараметр GMC формата : Без точки переходаПараметр матрицы формата : Default (H.263)Идентификатор кодека : XVIDИдентификатор кодека/Подсказка : XviDПродолжительность : 23 м.Битрейт : 1097 Кбит/секШирина : 720 пикселейВысота : 544 пикселяСоотношение сторон : 4:3Частота кадров : 25,000 кадров/секЦветовое пространство : YUVСубдискретизация насыщенности : 4:2:0Битовая глубина : 8 битТип развёртки : ПрогрессивнаяМетод сжатия : С потерямиБит/(Пиксели*Кадры) : 0.112Размер потока : 183 Мбайт (89%)
АудиоИдентификатор : 1Формат : MPEG AudioВерсия формата : Version 1Профиль формата : Layer 3Идентификатор кодека : 55Идентификатор кодека/Подсказка : MP3Продолжительность : 23 м.Продолжительность оригинала : 23 м.Вид битрейта : ПостоянныйБитрейт : 128 Кбит/секКаналы : 2 каналаЧастота : 48,0 КГцМетод сжатия : С потерямиРазмер потока : 21,4 Мбайт (10%)Выравнивание : Соединение по промежуткамПродолжительность промежутка : 40 мс. (1,00 видеокадр)
ОбщееПолное имя : C:\фильмы\02 возможно для раздачи\собака в доме (домашний, обучение)\Собака в доме (2013г)\собака в доме-19серия.aviФормат : AVIФормат/Информация : Audio Video InterleaveРазмер файла : 203 МбайтПродолжительность : 22 м.Общий поток : 1238 Кбит/сек
ВидеоИдентификатор : 0Формат : MPEG-4 VisualПрофиль формата : Advanced Simple@L4Параметр BVOP формата : НетПараметр QPel формата : НетПараметр GMC формата : Без точки переходаПараметр матрицы формата : Default (H.263)Идентификатор кодека : XVIDИдентификатор кодека/Подсказка : XviDПродолжительность : 22 м.Битрейт : 1100 Кбит/секШирина : 720 пикселейВысота : 544 пикселяСоотношение сторон : 4:3Частота кадров : 25,000 кадров/секЦветовое пространство : YUVСубдискретизация насыщенности : 4:2:0Битовая глубина : 8 битТип развёртки : ПрогрессивнаяМетод сжатия : С потерямиБит/(Пиксели*Кадры) : 0.112Размер потока : 181 Мбайт (89%)
АудиоИдентификатор : 1Формат : MPEG AudioВерсия формата : Version 1Профиль формата : Layer 3Идентификатор кодека : 55Идентификатор кодека/Подсказка : MP3Продолжительность : 22 м.Продолжительность оригинала : 22 м.Вид битрейта : ПостоянныйБитрейт : 128 Кбит/секКаналы : 2 каналаЧастота : 48,0 КГцМетод сжатия : С потерямиРазмер потока : 21,0 Мбайт (10%)Выравнивание : Соединение по промежуткамПродолжительность промежутка : 40 мс. (1,00 видеокадр)
ОбщееПолное имя : C:\фильмы\02 возможно для раздачи\собака в доме (домашний, обучение)\Собака в доме (2013г)\собака в доме-20серия.aviФормат : AVIФормат/Информация : Audio Video InterleaveРазмер файла : 207 МбайтПродолжительность : 23 м.Общий поток : 1235 Кбит/сек
ВидеоИдентификатор : 0Формат : MPEG-4 VisualПрофиль формата : Advanced Simple@L4Параметр BVOP формата : НетПараметр QPel формата : НетПараметр GMC формата : Без точки переходаПараметр матрицы формата : Default (H.263)Идентификатор кодека : XVIDИдентификатор кодека/Подсказка : XviDПродолжительность : 23 м.Битрейт : 1097 Кбит/секШирина : 720 пикселейВысота : 544 пикселяСоотношение сторон : 4:3Частота кадров : 25,000 кадров/секЦветовое пространство : YUVСубдискретизация насыщенности : 4:2:0Битовая глубина : 8 битТип развёртки : ПрогрессивнаяМетод сжатия : С потерямиБит/(Пиксели*Кадры) : 0.112Размер потока : 184 Мбайт (89%)
АудиоИдентификатор : 1Формат : MPEG AudioВерсия формата : Version 1Профиль формата : Layer 3Идентификатор кодека : 55Идентификатор кодека/Подсказка : MP3Продолжительность : 23 м.Продолжительность оригинала : 23 м.Вид битрейта : ПостоянныйБитрейт : 128 Кбит/секКаналы : 2 каналаЧастота : 48,0 КГцМетод сжатия : С потерямиРазмер потока : 21,4 Мбайт (10%)Выравнивание : Соединение по промежуткамПродолжительность промежутка : 40 мс. (1,00 видеокадр)
ОбщееПолное имя : C:\фильмы\02 возможно для раздачи\собака в доме (домашний, обучение)\Собака в доме (2013г)\собака в доме-21серия.aviФормат : AVIФормат/Информация : Audio Video InterleaveРазмер файла : 206 МбайтПродолжительность : 23 м.Общий поток : 1239 Кбит/сек
ВидеоИдентификатор : 0Формат : MPEG-4 VisualПрофиль формата : Advanced Simple@L4Параметр BVOP формата : НетПараметр QPel формата : НетПараметр GMC формата : Без точки переходаПараметр матрицы формата : Default (H.263)Идентификатор кодека : XVIDИдентификатор кодека/Подсказка : XviDПродолжительность : 23 м.Битрейт : 1101 Кбит/секШирина : 720 пикселейВысота : 544 пикселяСоотношение сторон : 4:3Частота кадров : 25,000 кадров/секЦветовое пространство : YUVСубдискретизация насыщенности : 4:2:0Битовая глубина : 8 битТип развёртки : ПрогрессивнаяМетод сжатия : С потерямиБит/(Пиксели*Кадры) : 0.112Размер потока : 183 Мбайт (89%)
АудиоИдентификатор : 1Формат : MPEG AudioВерсия формата : Version 1Профиль формата : Layer 3Идентификатор кодека : 55Идентификатор кодека/Подсказка : MP3Продолжительность : 23 м.Продолжительность оригинала : 23 м.Вид битрейта : ПостоянныйБитрейт : 128 Кбит/секКаналы : 2 каналаЧастота : 48,0 КГцМетод сжатия : С потерямиРазмер потока : 21,3 Мбайт (10%)Выравнивание : Соединение по промежуткамПродолжительность промежутка : 40 мс. (1,00 видеокадр)
ОбщееПолное имя : C:\фильмы\02 возможно для раздачи\собака в доме (домашний, обучение)\Собака в доме (2013г)\собака в доме-22серия.aviФормат : AVIФормат/Информация : Audio Video InterleaveРазмер файла : 203 МбайтПродолжительность : 23 м.Общий поток : 1236 Кбит/сек
ВидеоИдентификатор : 0Формат : MPEG-4 VisualПрофиль формата : Advanced Simple@L4Параметр BVOP формата : НетПараметр QPel формата : НетПараметр GMC формата : Без точки переходаПараметр матрицы формата : Default (H.263)Идентификатор кодека : XVIDИдентификатор кодека/Подсказка : XviDПродолжительность : 23 м.Битрейт : 1098 Кбит/секШирина : 720 пикселейВысота : 544 пикселяСоотношение сторон : 4:3Частота кадров : 25,000 кадров/секЦветовое пространство : YUVСубдискретизация насыщенности : 4:2:0Битовая глубина : 8 битТип развёртки : ПрогрессивнаяМетод сжатия : С потерямиБит/(Пиксели*Кадры) : 0.112Размер потока : 181 Мбайт (89%)
АудиоИдентификатор : 1Формат : MPEG AudioВерсия формата : Version 1Профиль формата : Layer 3Идентификатор кодека : 55Идентификатор кодека/Подсказка : MP3Продолжительность : 23 м.Продолжительность оригинала : 23 м.Вид битрейта : ПостоянныйБитрейт : 128 Кбит/секКаналы : 2 каналаЧастота : 48,0 КГцМетод сжатия : С потерямиРазмер потока : 21,1 Мбайт (10%)Выравнивание : Соединение по промежуткамПродолжительность промежутка : 40 мс. (1,00 видеокадр)

Скриншоты


Предыдущие или аналогичные раздачи

пока нет
возможный аналог - любая передача о дрессировке собак

источник рипа

телепередача
[Профиль] [ЛС]
Кто просматривает тему:

Форум Тема Автор Размер
Кино СССР Верный Руслан / История караульной собаки (Владимир Хмельницкий) [1991, Драма, экранизация, DVB] reversefile 3.64 GB
Кино СССР Верный Руслан / История караульной собаки (Владимир Хмельницкий) [1991, Драма, экранизация, SATRip] reversefile 1.46 GB
Кино СССР Год собаки (1994) DVDRip Russian Mafia 2.16 GB
Флора и фауна Дорога из приюта / Pound Pups to Dog Stars (1-8 серии из 10) (Николай Гриффин / Nicola Griffin) [2013, Документальный, пристройство бездомных собак, TVRip] reversefile 2.51 GB
Зарубежные Кошки против собак: Месть Китти Галор в 3Д / Cats & Dogs: The Revenge of Kitty Galore 3D (Брэд Пейтон / Brad Peyton) [2010, Боевик, Комедия, Семейный, BDremux, 1080p] BD3D TorrentFilm 24.76 GB
Фильмы (HD DVD, Blu-ray и BDRemux) Отель для собак / Hotel for Dogs (2009) BDRemux 1080p | NOR Transfer | D, P2 Russian Mafia 24.53 GB
Фильмы (HD DVD, Blu-ray и BDRemux) Повелитель собак / Leviatán (1984) BDRemux 1080p от Sem-te | P2, A Russian Mafia 23.01 GB
Фильмы (HD DVD, Blu-ray и BDRemux) Приключения Шерлока Холмса и доктора Ватсона. Собака Баскервилей (Игорь Масленников) [1981, СССР, Детектив, полная реставрация, Blu-ray disc 1080p] painkiller 35.98 GB
Показать сообщения:    

Текущее время: Сегодня 10:51

Часовой пояс: GMT



Вы не можете начинать темы
Вы не можете отвечать на сообщения
Вы не можете редактировать свои сообщения
Вы не можете удалять свои сообщения
Вы не можете голосовать в опросах
Вы не можете прикреплять файлы к сообщениям
Вы не можете скачивать файлы