Снимок / Snapshot (Адиль Ель Арби, Билаль Фалах)[2014,Драма, триллер] DVDRip | L1

 
Автор Сообщение

adeei ®

Пол:

Стаж: 1 год 8 месяцев

Сообщений: 63

Откуда: Россия Иваново



Награды: 3 (Подробнее)

Mega Seeder 3 (Количество: 1) Mega Seeder 2 (Количество: 1) Mega Seeder 1 (Количество: 1)
Торрент-статистика

Создавать темы 01-Апр-2015 17:40

[Цитировать]

Снимок / Snapshot Год выхода: 2014
Жанр: Драма, триллер
Выпущено: Бельгия / A Team Productions, Eyeworks Film & TV Drama
Продолжительность: 01:32:00
Перевод: Любительский одноголосый (PashaUp)-Режиссер: Адиль Ель Арби, Билаль Фалах-В ролях: Набил Маллат, Монир Эт Аму, Лаура Верлинден, Санаа Алауи, Гене Бервутс, Фабрис Бутик, Воутер Хендрикс, Чарли Пастелеус, Герт Ван Рампелберг-Описание: Ева – журналистка, снимающая документальный фильм об опасных районах Брюсселя. Знакомство с молодым марокканским парнем в корне меняет ее жизнь.. - -Формат: AVI (XviD)
Качество: DVDRip
Видео: XviD, 2083 Кбит/с, 704x288
Аудио: Русский , AC3, 2 ch, 384 Кбит/с-

Скриншоты

MediaInfo

Общее
Полное имя : D:\ftp\Image.2014.DVDRip.avi
Формат : AVI
Формат/Информация : Audio Video Interleave
Размер файла : 1,50 Гбайт
Продолжительность : 1 ч. 26 м.
Общий поток : 2477 Кбит/сек
Программа кодирования : VirtualDubMod 1.5.10.2 (build 2542/release)
Библиотека кодирования : VirtualDubMod build 2542/release
Видео
Идентификатор : 0
Формат : MPEG-4 Visual
Профиль формата : Advanced Simple@L5
Параметр BVOP формата : 2
Параметр QPel формата : Нет
Параметр GMC формата : Без точки перехода
Параметр матрицы формата : Default (MPEG)
Идентификатор кодека : XVID
Идентификатор кодека/Подсказка : XviD
Продолжительность : 1 ч. 26 м.
Битрейт : 2084 Кбит/сек
Ширина : 704 пикселя
Высота : 288 пикселей
Соотношение сторон : 2,40:1
Частота кадров : 25,000 кадров/сек
Цветовое пространство : YUV
Субдискретизация насыщенности : 4:2:0
Битовая глубина : 8 бит
Тип развёртки : Прогрессивная
Метод сжатия : С потерями
Бит/(Пиксели*Кадры) : 0.411
Размер потока : 1,26 Гбайт (84%)
Библиотека кодирования : XviD 1.2.1 (UTC 2008-12-04)
Аудио
Идентификатор : 1
Формат : AC-3
Формат/Информация : Audio Coding 3
Расширение режима : CM (complete main)
Параметр Endianness формата : Big
Идентификатор кодека : 2000
Продолжительность : 1 ч. 26 м.
Вид битрейта : Постоянный
Битрейт : 384 Кбит/сек
Каналы : 2 канала
Расположение каналов : Front: L R
Частота : 48,0 КГц
Битовая глубина : 16 бит
Метод сжатия : С потерями
Размер потока : 238 Мбайт (16%)
Выравнивание : Разделение по промежуткам
Продолжительность промежутка : 40 мс. (1,00 видеокадр)
Время предзагрузки промежутка : 500 мс.
-
[Профиль] [ЛС]
Кто просматривает тему:

Показать сообщения:    

Текущее время: Сегодня 01:26

Часовой пояс: GMT



Вы не можете начинать темы
Вы не можете отвечать на сообщения
Вы не можете редактировать свои сообщения
Вы не можете удалять свои сообщения
Вы не можете голосовать в опросах
Вы не можете прикреплять файлы к сообщениям
Вы не можете скачивать файлы