Снежный шар / Идеальное Рождество / Snowglobe (Рон Лагомарсино / Ron Lagomarsino) [2007, мелодрама, комедия, семейный, SATRip] MVO (Первый канал)

 
Автор Сообщение

TorrentFilm ®

Пол:

Стаж: 2 года

Сообщений: 7741



Награды: Нет

Торрент-статистика

Создавать темы 16-Янв-2015 00:00

[Цитировать]

Снежный шар / Snowglobe
Страна: США
Жанр: мелодрама, комедия, семейный
Год выпуска: 2007
Продолжительность: 01:25:29
Перевод: Профессиональный (многоголосый закадровый) - по заказу Первого канала
Cубтитры: нет
Режиссер: Рон Лагомарсино / Ron Lagomarsino
В ролях: Кристина Милиан, Эрин Карплак, Хильда Доэрти, Джейсон Шомбинг, Джеймс Кот, Эндрю Криванек, Джош Кук, Эннис Эсмер, Лоррейн Бракко, Лучана Карро...
Описание: Молодая девушка, которая всегда ждала Рождества, неожиданно получает снежный шар, который переносит ее в мир, где всегда 25 декабря.- | Сэмпл | -Качество видео: SATRip
Формат видео: AVI
Видео: 640x480 (1.33:1), 25 fps, XviD build 73 ~1111 kbps avg, 0.14 bit/pixel
Аудио: Русский, 48 kHz, AC3 Dolby Digital, 1/0 (C) ch, ~96 kbps

MediaInfo

GeneralComplete name : Snowglobe.2007.Disney.MVO_Olu6ka.aviFormat : AVIFormat/Info : Audio Video InterleaveFile size : 745 MiBDuration : 1h 25mnOverall bit rate : 1 218 KbpsWriting application : VirtualDubMod 1.5.10.3Writing library : VirtualDubMod build 2550/release
VideoID : 0Format : MPEG-4 VisualFormat profile : Advanced Simple@L5Format settings, BVOP : 1Format settings, QPel : NoFormat settings, GMC : No warppointsFormat settings, Matrix : CustomCodec ID : XVIDCodec ID/Hint : XviDDuration : 1h 25mnBit rate : 1 112 KbpsWidth : 640 pixelsHeight : 480 pixelsDisplay aspect ratio : 4:3Frame rate : 25.000 fpsColor space : YUVChroma subsampling : 4:2:0Bit depth : 8 bitsScan type : ProgressiveCompression mode : LossyBits/(Pixel*Frame) : 0.145Stream size : 680 MiB (91%)Writing library : XviD 73
AudioID : 1Format : AC-3Format/Info : Audio Coding 3Mode extension : CM (complete main)Format settings, Endianness : BigCodec ID : 2000Duration : 1h 25mnBit rate mode : ConstantBit rate : 96.0 KbpsChannel count : 1 channelChannel positions : Front: CSampling rate : 48.0 KHzBit depth : 16 bitsCompression mode : LossyStream size : 58.7 MiB (8%)Alignment : Split accross interleavesInterleave, duration : 40 ms (1.00 video frame)Interleave, preload duration : 500 ms
Спасибо xfiles за исходники и обработку звука!Релиз от группы
[Профиль] [ЛС]

Создавать темы 06-Авг-2015 22:48 (спустя 6 месяцев 21 день)

Топик был перенесен из форума Фильмы до 2014 года в форум Фильмы до 2012 года
sergej644
 
Показать сообщения:    

Текущее время: Сегодня 14:27

Часовой пояс: GMT



Вы не можете начинать темы
Вы не можете отвечать на сообщения
Вы не можете редактировать свои сообщения
Вы не можете удалять свои сообщения
Вы не можете голосовать в опросах
Вы не можете прикреплять файлы к сообщениям
Вы не можете скачивать файлы