Снежный шар / Идеальное Рождество / Snowglobe (Рон Лагомарсино / Ron Lagomarsino) [2007, мелодрама, комедия, семейный, DVB] MVO (Первый канал)

 
Автор Сообщение

TorrentFilm ®

Пол:

Стаж: 1 год 11 месяцев

Сообщений: 7741



Награды: Нет

Торрент-статистика

Создавать темы 03-Янв-2015 00:01

[Цитировать]

Снежный шар / Snowglobe- Страна: США
Жанр: мелодрама, комедия, семейный
Год выпуска: 2007
Продолжительность: 01:25:29
Перевод: Профессиональный (многоголосый закадровый) - по заказу Первого канала
Cубтитры: нет-Режиссер: Рон Лагомарсино / Ron Lagomarsino
В ролях: Кристина Милиан, Эрин Карплак, Хильда Доэрти, Джейсон Шомбинг, Джеймс Кот, Эндрю Криванек, Джош Кук, Эннис Эсмер, Лоррейн Бракко, Лучана Карро...- |-Описание: Молодая девушка, которая всегда ждала Рождества, неожиданно получает снежный шар, который переносит ее в мир, где всегда 25 декабря.-Семпл: http://sendfile.su/1068000-Качество видео: DVB (Канал "Disney")
Формат видео: MPG
Видео: 720x576 (4:3) @ 768x576, 25.000 fps, MPEG-2 Video, ~3073 Kbps, 0.296 bits/pixel
Аудио: Русский, 48.0 KHz, MPEG-1 Audio layer 2, 2 ch, 192 Kbps

MediaInfo

GeneralComplete name : Snowglobe 2007 Disney Dub (по заказу 1 канала).mpgFormat : MPEG-PSFile size : 1.99 GiBDuration : 1h 25mnOverall bit rate mode : VariableOverall bit rate : 3 332 Kbps
VideoID : 224 (0xE0)Format : MPEG VideoFormat version : Version 2Format profile : Main@MainFormat settings, BVOP : YesFormat settings, Matrix : CustomFormat settings, GOP : VariableFormat settings, picture structure : FrameDuration : 1h 25mnBit rate mode : VariableBit rate : 3 073 KbpsMaximum bit rate : 15.0 MbpsWidth : 720 pixelsHeight : 576 pixelsDisplay aspect ratio : 4:3Frame rate : 25.000 fpsStandard : PALColor space : YUVChroma subsampling : 4:2:0Bit depth : 8 bitsScan type : InterlacedScan order : Top Field FirstCompression mode : LossyBits/(Pixel*Frame) : 0.296Time code of first frame : 00:00:00:00Time code source : Group of pictures headerStream size : 1.84 GiB (92%)
AudioID : 192 (0xC0)Format : MPEG AudioFormat version : Version 1Format profile : Layer 2Duration : 1h 25mnBit rate mode : ConstantBit rate : 192 KbpsChannel(s) : 2 channelsSampling rate : 48.0 KHzCompression mode : LossyStream size : 117 MiB (6%)
[Профиль] [ЛС]

Создавать темы 06-Авг-2015 22:50 (спустя 7 месяцев 3 дня)

Топик был перенесен из форума Фильмы до 2014 года в форум Фильмы до 2012 года
sergej644
 
Показать сообщения:    

Текущее время: Сегодня 20:08

Часовой пояс: GMT



Вы не можете начинать темы
Вы не можете отвечать на сообщения
Вы не можете редактировать свои сообщения
Вы не можете удалять свои сообщения
Вы не можете голосовать в опросах
Вы не можете прикреплять файлы к сообщениям
Вы не можете скачивать файлы