Снег 2: Заморозка мозгов / Snow 2: Brain Freeze (Марк Росман / Mark Rosman) [2008, США, Канада, комедия, семейный, DVDRip] MVO (СТС)

 
Автор Сообщение

TorrentFilm ®

Пол:

Стаж: 2 года

Сообщений: 7741



Награды: Нет

Торрент-статистика

Создавать темы 07-Янв-2015 00:01

[Цитировать]

Снег 2: Заморозка мозгов / Snow 2: Brain Freeze- Страна: США, Канада
Жанр: комедия, семейный
Год выпуска: 2008
Продолжительность: 01:23:14
Перевод: Профессиональный (многоголосый закадровый) - Объединение "Русский дубляж" по заказу СТС, 2009
Cубтитры: нет-Режиссер: Марк Росман / Mark Rosman
В ролях: Томас Кэвэна, Эшли Уильямс, Линли Холл, Джанелл Купер, Вив Ликок, Хэл Уильямс, Чантал Перрон, Ирен Кэррас, Патрик Фабиан, Патрик Ричардс, Джонатан Холмс, Wally Houn, Рон Барж, Александр Конти, Брайан Мартелл, Кари Джонс, Джеймс Д. Хопкин, Шон Хой, Джэйк Черч, Scott Morasch, Дэвид Лерини, Ребекка Тулан, Джон Дилан Луи...- | Релиз: -Описание: Санта-Клаус забыл, кем он является: у него амнезия. Но команда самоотверженных помощником спасет Рождество!-Доп. информация: Первая часть фильма здесь: http://torrentfilm.net/forum/viewtopic.php?t=4903245-Семпл: http://sendfile.su/1070054-Качество видео: DVB (Канал "Disney")
Формат видео: MPG
Видео: 720x576 (4:3) @ 768x576, 25.000 fps, MPEG-2 Video, ~2866 Kbps, 0.276 bits/pixel
Аудио: Русский, 48.0 KHz, MPEG-1 Audio layer 2, 2 ch, 192 Kbps

MediaInfo

GeneralComplete name : Snow 2 - Brain Freeze 2008 Disney MVO CTC.mpgFormat : MPEG-PSFile size : 1.81 GiBDuration : 1h 23mnOverall bit rate mode : VariableOverall bit rate : 3 120 Kbps
VideoID : 224 (0xE0)Format : MPEG VideoFormat version : Version 2Format profile : Main@MainFormat settings, BVOP : YesFormat settings, Matrix : CustomFormat settings, GOP : VariableFormat settings, picture structure : FrameDuration : 1h 23mnBit rate mode : VariableBit rate : 2 866 KbpsMaximum bit rate : 15.0 MbpsWidth : 720 pixelsHeight : 576 pixelsDisplay aspect ratio : 4:3Frame rate : 25.000 fpsStandard : PALColor space : YUVChroma subsampling : 4:2:0Bit depth : 8 bitsScan type : InterlacedScan order : Top Field FirstCompression mode : LossyBits/(Pixel*Frame) : 0.276Time code of first frame : 00:00:00:00Time code source : Group of pictures headerGOP, Open/Closed : OpenStream size : 1.67 GiB (92%)GOP, Open/Closed of first frame : Closed
AudioID : 192 (0xC0)Format : MPEG AudioFormat version : Version 1Format profile : Layer 2Duration : 1h 23mnBit rate mode : ConstantBit rate : 192 KbpsChannel(s) : 2 channelsSampling rate : 48.0 KHzCompression mode : LossyStream size : 114 MiB (6%)

Скриншоты

[Профиль] [ЛС]

Создавать темы 06-Авг-2015 22:50 (спустя 6 месяцев 30 дней)

Топик был перенесен из форума Фильмы до 2014 года в форум Фильмы до 2012 года
sergej644
 

Создавать темы 12-Июн-2016 08:51 (спустя 1 год 5 месяцев)

Топик был перенесен из форума Фильмы 2011 года в форум Фильмы 2006-2008 года
Russian Mafia
 
Кто просматривает тему:

Показать сообщения:    

Текущее время: Сегодня 14:54

Часовой пояс: GMT



Вы не можете начинать темы
Вы не можете отвечать на сообщения
Вы не можете редактировать свои сообщения
Вы не можете удалять свои сообщения
Вы не можете голосовать в опросах
Вы не можете прикреплять файлы к сообщениям
Вы не можете скачивать файлы