Снег и пепел (2015) SATRip (cерии 1-4 из 4)

 
Автор Сообщение

достали все ®

Пол:

Стаж: 1 год 8 месяцев

Сообщений: 6527



Награды: 12 (Подробнее)

Top Releaser 3 (Количество: 1) Mega Seeder 2 (Количество: 1) Mega Releaser 1 (Количество: 1)
Торрент-статистика

Создавать темы 10-Май-2015 12:50

[Цитировать]

-Снег и пепел (2015) SATRip- Выпущено: Россия, «ПРИОР Продакшн», «Студия Грин Фильм»
Жанр: военный, детектив
Режиссер: Александр Кириенко
Актеры: Денис Шведов, Ольга Сутулова, Анатолий Белый, Даниил Спиваковский, Константин Воробьёв, Алёна Ивченко, Яков Шамшин, Игнатий Акрачков, Алексей Гришин, Юрий Ицков, Алексей Красноцветов, Антонис Шаманиди, Любовь Макеева, Евгений Капитонов, Сергей Бызгу
Описание:
В 1942 году крупное подразделение советских войск попадает в немецкий «котел» — с тылами армию соединяет лишь узкий перешеек, окруженный болотами. Немцы готовят прорыв, среди русских находится опытный диверсант. Для его разоблачения НКВД внедряет одного из лучших сотрудников, майора Урусова, который берет с собой трех молодых разведчиков. Выдавая себя за полковника Ямпольского, Урусов начинает расследование, а диверсант не дремлет: одного за другим убирает свидетелей и организует постройку лесной дороги для прохода немецкой бронетехники через кажущийся непроходимым лес. У Урусова постоянно появляются новые подозреваемые, но каждая версия рассыпается, как назло.

Дата российской премьеры: 10 мая 2015
Продолжительность: ~ 00:44:00 серия
Качество видео: SATRip
Видеокодек: XviD
Битрейт видео: 1800 kbps
Размер кадра: 720x448
Аудиокодек: MP3 2.0
Битрейт аудио: 128 kbps

MediaInfo

Общее
Полное имя : D:\Релизы\Снег.и.пепел.2015.SATRip.NNM-CLUB\1.серия.avi
Формат : AVI
Формат/Информация : Audio Video Interleave
Размер файла : 621 Мбайт
Продолжительность : 44 м.
Общий поток : 1937 Кбит/сек
Программа кодирования : VirtualDubMod 1.5.10.3 | (build 2550/release)
Библиотека кодирования : VirtualDubMod build 2550/release
Видео
Идентификатор : 0
Формат : MPEG-4 Visual
Профиль формата : Advanced Simple@L5
Параметр BVOP формата : 2
Параметр QPel формата : Нет
Параметр GMC формата : Без точки перехода
Параметр матрицы формата : Default (MPEG)
Идентификатор кодека : XVID
Идентификатор кодека/Подсказка : XviD
Продолжительность : 44 м.
Битрейт : 1800 Кбит/сек
Ширина : 720 пикселей
Высота : 448 пикселей
Соотношение сторон : 16:10
Частота кадров : 25,000 кадров/сек
Цветовое пространство : YUV
Субдискретизация насыщенности : 4:2:0
Битовая глубина : 8 бит
Тип развёртки : Прогрессивная
Метод сжатия : С потерями
Бит/(Пиксели*Кадры) : 0.223
Размер потока : 577 Мбайт (93%)
Библиотека кодирования : XviD 1.2.1 (UTC 2008-12-04)
Аудио
Идентификатор : 1
Формат : MPEG Audio
Версия формата : Version 1
Профиль формата : Layer 3
Режим : Joint stereo
Расширение режима : MS Stereo
Идентификатор кодека : 55
Идентификатор кодека/Подсказка : MP3
Продолжительность : 44 м.
Вид битрейта : Постоянный
Битрейт : 128 Кбит/сек
Каналы : 2 канала
Частота : 48,0 КГц
Метод сжатия : С потерями
Размер потока : 41,0 Мбайт (7%)
Выравнивание : Соединение по промежуткам
Продолжительность промежутка : 40 мс. (1,00 видеокадр)
Время предзагрузки промежутка : 504 мс.
Библиотека кодирования : LAME3.99r
Настройки программы : -m j -V 4 -q 2 -lowpass 17 -b 128
Скриншоты:
[Профиль] [ЛС]
Кто просматривает тему:

Показать сообщения:    

Текущее время: Сегодня 00:07

Часовой пояс: GMT



Вы не можете начинать темы
Вы не можете отвечать на сообщения
Вы не можете редактировать свои сообщения
Вы не можете удалять свои сообщения
Вы не можете голосовать в опросах
Вы не можете прикреплять файлы к сообщениям
Вы не можете скачивать файлы