Снег в раю / Snow in Paradise (2014) BDRip 1080p | L2

 
Автор Сообщение

достали все ®

Пол:

Стаж: 1 год 8 месяцев

Сообщений: 6525



Награды: 12 (Подробнее)

Mega Seeder 5 (Количество: 1) Mega Releaser 2 (Количество: 1) Mega Seeder 3 (Количество: 1)
Торрент-статистика

Создавать темы 01-Дек-2015 09:57

[Цитировать]

Информация о фильме
Название: Снег в раю
Оригинальное название: Snow in Paradise
Год выпуска: 2014
Жанр: триллер, драма, криминал
Режиссер: Эндрю Хьюм
В ролях: Фредерик Шмидт, Мартин Аскью, Дэвид Спинкс, Аймен Хамдуши, Клер-Луис Кордуэлл, Эшли Чин, Джоэль Бекетт, Клайв БрантДжон Даглиш, Энн Теато
Описание:
Дэйв - мелкий уголовник, наркоман и беспредельщик, промышляющий в Лондоне. Когда его действия приводят к гибели его лучшего друга, Дэйва захлестывает чувство стыда и раскаяния. С открытием ислама, в его душу приходят мир и покой, но старя жизнь настигает его, как бы желая проверить на прочность.

Выпущено: Великобритания, Ipso Facto Productions
Продолжительность: 01:48:05
Перевод: Любительский (двухголосый) [den904&DeadSno],перевод [Professor]
Файл
Формат:MKV
Качество:BDRip 1080p
Видео: MPEG-4 AVC, 8618 Кбит/с, 1920x800
Звук: Русский (AC3, 2 ch, 448 Кбит/с),(DTS, 6 ch, 1510 Кбит/с), английский (DTS, 6 ch, 1510 Кбит/с)

Инфо-файл

Полное имя : Snieg.vraju.L2.2014.BDRip.1080p.mkv
Формат : Matroska
Версия формата : Version 4 / Version 2
Размер файла : 9,13 Гбайт
Продолжительность : 1 ч. 48 м.
Общий поток : 12,1 Мбит/сек
Название фильма : REGIS1975NewGoliaf
Дата кодирования : UTC 2015-11-30 09:40:47
Программа кодирования : mkvmerge v7.9.0 ('Birds') 64bit
Библиотека кодирования : libebml v1.3.1 + libmatroska v1.4.2
_STATISTICS_WRITING_APP : mkvmerge v7.9.0 ('Birds') 64bit
_STATISTICS_WRITING_DATE_UTC : 2015-11-30 09:40:47
_STATISTICS_TAGS : BPS DURATION NUMBER_OF_FRAMES NUMBER_OF_BYTES
DURATION : 01:48:05.088000000
NUMBER_OF_FRAMES : 202659
NUMBER_OF_BYTES : 363164928
Видео
Идентификатор : 1
Формат : AVC
Формат/Информация : Advanced Video Codec
Профиль формата : High@L4.1
Параметр CABAC формата : Да
Параметр ReFrames формата : 5 кадров
Идентификатор кодека : V_MPEG4/ISO/AVC
Продолжительность : 1 ч. 48 м.
Битрейт : 8618 Кбит/сек
Ширина : 1920 пикселей
Высота : 800 пикселей
Соотношение сторон : 2,40:1
Режим частоты кадров : Постоянный
Частота кадров : 24,000 кадра/сек
Цветовое пространство : YUV
Субдискретизация насыщенности : 4:2:0
Битовая глубина : 8 бит
Тип развёртки : Прогрессивная
Бит/(Пиксели*Кадры) : 0.234
Размер потока : 6,33 Гбайт (69%)
Заголовок : http://newgoliaf.com
Библиотека кодирования : x264 core 146 r2538 121396c
Настройки программы : cabac=1 / ref=5 / deblock=1:1:1 / analyse=0x3:0x133 / me=umh / subme=8 / psy=1 / psy_rd=1.00:0.00 / mixed_ref=1 / me_range=16 / chroma_me=1 / trellis=1 / 8x8dct=1 / cqm=0 / deadzone=21,11 / fast_pskip=0 / chroma_qp_offset=-2 / threads=12 / lookahead_threads=2 / sliced_threads=0 / nr=0 / decimate=1 / interlaced=0 / bluray_compat=0 / constrained_intra=0 / bframes=3 / b_pyramid=2 / b_adapt=2 / b_bias=0 / direct=3 / weightb=1 / open_gop=0 / weightp=2 / keyint=240 / keyint_min=24 / scenecut=40 / intra_refresh=0 / rc_lookahead=50 / rc=2pass / mbtree=1 / bitrate=8618 / ratetol=1.0 / qcomp=0.60 / qpmin=0 / qpmax=69 / qpstep=4 / cplxblur=20.0 / qblur=0.5 / ip_ratio=1.40 / aq=1:1.00
Язык : English
Default : Да
Forced : Нет
_STATISTICS_WRITING_APP : mkvmerge v7.9.0 ('Birds') 64bit
_STATISTICS_WRITING_DATE_UTC : 2015-11-30 09:40:47
_STATISTICS_TAGS : BPS DURATION NUMBER_OF_FRAMES NUMBER_OF_BYTES
DURATION : 01:48:05.042000000
NUMBER_OF_FRAMES : 155641
NUMBER_OF_BYTES : 6985498265
Аудио #1
Идентификатор : 2
Формат : DTS
Формат/Информация : Digital Theater Systems
Режим : 16
Параметр Endianness формата : Big
Идентификатор кодека : A_DTS
Продолжительность : 1 ч. 48 м.
Вид битрейта : Постоянный
Битрейт : 1509 Кбит/сек
Каналы : 6 каналов
Расположение каналов : Front: L C R, Side: L R, LFE
Частота : 48,0 КГц
Битовая глубина : 24 бит
Метод сжатия : С потерями
Размер потока : 1,14 Гбайт (12%)
Язык : English
Default : Да
Forced : Нет
Аудио #2
Идентификатор : 3
Формат : DTS
Формат/Информация : Digital Theater Systems
Режим : 16
Параметр Endianness формата : Big
Идентификатор кодека : A_DTS
Продолжительность : 1 ч. 48 м.
Вид битрейта : Постоянный
Битрейт : 1510 Кбит/сек
Каналы : 6 каналов
Расположение каналов : Front: L C R, Side: L R, LFE
Частота : 48,0 КГц
Битовая глубина : 24 бит
Метод сжатия : С потерями
Размер потока : 1,14 Гбайт (12%)
Заголовок : Rus.L2.
Язык : Russian
Default : Нет
Forced : Нет
Аудио #3
Идентификатор : 4
Формат : AC-3
Формат/Информация : Audio Coding 3
Расширение режима : CM (complete main)
Параметр Endianness формата : Big
Идентификатор кодека : A_AC3
Продолжительность : 1 ч. 48 м.
Вид битрейта : Постоянный
Битрейт : 448 Кбит/сек
Каналы : 6 каналов
Расположение каналов : Front: L C R, Side: L R, LFE
Частота : 48,0 КГц
Битовая глубина : 16 бит
Метод сжатия : С потерями
Размер потока : 346 Мбайт (4%)
Заголовок : Rus.L2.
Язык : Russian
Default : Нет
Forced : Нет
Меню
00:00:00.000 : en:00:00:00.000
00:09:05.541 : en:00:09:05.541
00:17:22.291 : en:00:17:22.291
00:25:49.750 : en:00:25:49.750
00:33:35.416 : en:00:33:35.416
00:41:47.625 : en:00:41:47.625
00:50:43.291 : en:00:50:43.291
00:59:49.666 : en:00:59:49.666
01:08:36.916 : en:01:08:36.916
01:18:01.583 : en:01:18:01.583
01:25:51.625 : en:01:25:51.625
01:34:10.833 : en:01:34:10.833
01:48:05.041 : en:01:48:05.041

Скриншоты

Релиз от:
[Профиль] [ЛС]
Кто просматривает тему:

Показать сообщения:    

Текущее время: Сегодня 11:58

Часовой пояс: GMT



Вы не можете начинать темы
Вы не можете отвечать на сообщения
Вы не можете редактировать свои сообщения
Вы не можете удалять свои сообщения
Вы не можете голосовать в опросах
Вы не можете прикреплять файлы к сообщениям
Вы не можете скачивать файлы