Снегурочка (Дмитрий Светозаров) [2014, Россия, драма, мелодрама, триллер, DVD9] R5 Original Rus

 
Автор Сообщение

reversefile ®

Пол:

Стаж: 4 года 5 месяцев

Сообщений: 842

Откуда: ReverseFile.org



Награды: Нет

Торрент-статистика

Создавать темы 25-Июл-2014 01:06

[Цитировать]

-Снегурочка -Страна: Россия
Студия: АСДС
Жанр: драма, мелодрама, триллер
Год выпуска: 2014
Российская премьера: 28 января 2014, «Proline-медиа»
Дата выхода DVD: 11 марта 2014, «CD Land»
Продолжительность: 01:44:11
Перевод: Оригинал [Лицензия]
Cубтитры: нет
Оригинальная аудиодорожка: русский-Режиссер: Дмитрий Светозаров-В ролях: Валерий Дегтярь, Анна Хилькевич, Ирина Полянская, Данила Ануфриев, Алиса Миронова, Рудольф Фурманов, Евгений Катаев, Наталья Кутасова, Вадим Лобанов, Лев Елисеев, Олег Пальмов, Сергей Мардарь, Михаил Трясоруков, Олег Зорин, Алексей Чардымский-Описание: В одночасье испарилось и потеряло цену все, к чему стремился и чего достиг за неполные сорок лет жизни Алексей Нечаев, руководитель, лауреат, профессор, член государственных комиссий, фондов, советов при президенте, включая дом и семью. Имя этому наваждению — запретная любовь. Влюбившись в девушку, годящуюся ему в дочери, внешне обаятельную, по-детски дурашливую и наивную, главный герой, сам того не замечая, медленно разрушает свою жизнь…-Бонусы: нет- -Качество: DVD9 R5
Формат: DVD-Video
Видео кодек: MPEG2
Аудио кодек: AC3
Видео: PAL 16:9 (720x576(0.631)) MPEG Video, 25,000 кадр/сек, 6543 Кбит/сек
Аудио: Russian (Dolby AC3, 6 ch) 448 Кбит/сек, 48,0 КГц--

DVDInfo

Title: Snegurochka.2014.DVD9
Size: 5.41 Gb ( 5 670 416,00 KBytes ) - DVD-9
Enabled regions: 1, 2, 3, 4, 5, 6, 7, 8
VTS_01 :
Play Length: 00:00:19
Video: PAL 4:3 (720x576) VBR
Audio:
Not specified (Dolby AC3, 2 ch)
VTS_02 :
Play Length: 01:44:11
Video: PAL 16:9 (720x576) VBR, Auto Letterboxed
Audio:
Russian (Dolby AC3, 6 ch)
* Menus Information *
VIDEO_TS Menu
Video:
PAL 16:9 (720x576) VBR
Auto Pan&Scan, Auto Letterboxed
English Language Unit :
Title Menu
VTS_01 Menu
Video:
PAL 16:9 (720x576) VBR
Auto Letterboxed
Audio:
Not specified (Dolby AC3, 2 ch)
English Language Unit :
Root Menu
VTS_02 Menu
Video:
PAL 4:3 (720x576) VBR
English Language Unit :
Root Menu

MediaInfo

Общее
Полное имя : D:\Новинки 2014\Snegurochka.2014.DVD9\VIDEO_TS\VTS_02_1.VOB
Формат : MPEG-PS
Размер файла : 1024 Мбайт
Продолжительность : 20 м.
Режим общего битрейта : Переменный
Общий поток : 7133 Кбит/сек
Видео
Идентификатор : 224 (0xE0)
Формат : MPEG Video
Версия формата : Version 2
Профиль формата : Main@Main
Параметр BVOP формата : Да
Параметр матрицы формата : По умолчанию
Параметр GOP формата : M=3, N=12
Продолжительность : 20 м.
Вид битрейта : Переменный
Битрейт : 6543 Кбит/сек
Максимальный битрейт : 8000 Кбит/сек
Ширина : 720 пикселей
Высота : 576 пикселей
Соотношение сторон : 16:9
Частота кадров : 25,000 кадров/сек
Стандарт вещания : PAL
Цветовое пространство : YUV
Субдискретизация насыщенности : 4:2:0
Битовая глубина : 8 бит
Тип развёртки : Прогрессивная
Метод сжатия : С потерями
Бит/(Пиксели*Кадры) : 0.631
Временной код первого кадра : 00:00:00:00
Оригинал временного кода : Group of pictures header
Размер потока : 939 Мбайт (92%)
Аудио
Идентификатор : 189 (0xBD)-128 (0x80)
Формат : AC-3
Формат/Информация : Audio Coding 3
Расширение режима : CM (complete main)
Параметр Endianness формата : Big
Режим смешивания : DVD-Video
Продолжительность : 20 м.
Вид битрейта : Постоянный
Битрейт : 448 Кбит/сек
Каналы : 6 каналов
Расположение каналов : Front: L C R, Side: L R, LFE
Частота : 48,0 КГц
Битовая глубина : 16 бит
Метод сжатия : С потерями
Размер потока : 64,3 Мбайт (6%)

Скриншоты меню

Скриншоты фильма


-
-
[Профиль] [ЛС]

Создавать темы 06-Авг-2015 23:40 (спустя 1 год)

Топик был перенесен из форума Фильмы (HD DVD, Blu-ray и BDRemux) в форум Фильмы (DVD 5/9)
sergej644
 
Показать сообщения:    

Текущее время: Сегодня 16:24

Часовой пояс: GMT



Вы не можете начинать темы
Вы не можете отвечать на сообщения
Вы не можете редактировать свои сообщения
Вы не можете удалять свои сообщения
Вы не можете голосовать в опросах
Вы не можете прикреплять файлы к сообщениям
Вы не можете скачивать файлы