Снегурочка (1968) DVD5 | Реставрация

 
Автор Сообщение

sergej644 ®

Пол:

Стаж: 4 года 11 месяцев

Сообщений: 6046

Откуда: Soviet Union



Награды: Нет

Торрент-статистика

Создавать темы 19-Янв-2015 23:43

[Цитировать]

Информация о фильме
Название: Снегурочка
Год выхода: 1968
Жанр: мюзикл, фэнтези, мелодрама, семейный
Режиссер: Павел Кадочников
В ролях: Евгения Филонова, Евгений Жариков, Ирина Губанова, Борис Химичев, Павел Кадочников, Наталья Климова, Валерий Малышев, Станислав Фесюнов, Владимир Костин, Сергей Филиппов
О фильме:
Снегурочка — дочь Деда Мороза и Красавицы Весны. Ее ледяное сердце никогда еще не ведало простых человеческих радостей, никогда не знало любви до встречи с Лелем.
Его душевное тепло подарило девушке богатство окружающего мира, растопило сердце холодной красавицы. В фильме есть и чудесная природа, и веселые хороводы, и игры, и песни — все, без чего не может быть настоящей русской сказки.

Страна: СССР
Студия: Ленфильм
Продолжительность: 88 мин. / 01:28
Перевод: не требуется
Бонусы: Фильмографии
Файл
Кодек: MPEG2
Качество: DVD5
Видео: PAL 16:9 (720x576@1024x576) CBR 5489 Kbps, 25.000 fps
Аудио 1: Dolby AC3, 6 ch, 48.0 KHz, 384 Кbps
Аудио 2: Dolby AC3, 1 ch, 48.0 KHz, 224 Кbps
Субтитры: отсутствуют

MediaInfo

General
Complete name : D:Snegurochka.1968.DVD-5VTS_02_1.VOB
Format : MPEG-PS
File size : 1 024 MiB
Duration : 22mn 46s
Overall bit rate : 6 286 Kbps
Video
ID : 224 (0xE0)
Format : MPEG Video
Format version : Version 2
Format profile : Main@Main
Format settings, BVOP : Yes
Format settings, Matrix : Custom
Format settings, GOP : M=3, N=15
Format settings, picture struc : Frame
Duration : 22mn 46s
Bit rate : 5 489 Kbps
Width : 720 pixels
Height : 576 pixels
Display aspect ratio : 16:9
Frame rate : 25.000 fps
Standard : PAL
Color space : YUV
Chroma subsampling : 4:2:0
Bit depth : 8 bits
Scan type : Interlaced
Scan order : Top Field First
Compression mode : Lossy
Bits/(Pixel*Frame) : 0.529
Time code of first frame : 00:00:00:01
Time code source : Group of pictures header
Stream size : 894 MiB (87%)
Audio #1
ID : 189 (0xBD)-128 (0x80)
Format : AC-3
Format/Info : Audio Coding 3
Mode extension : CM (complete main)
Format settings, Endianness : Big
Muxing mode : DVD-Video
Duration : 22mn 45s
Bit rate mode : Constant
Bit rate : 448 Kbps
Channel(s) : 6 channels
Channel positions : Front: L C R, Side: L R, LFE
Sampling rate : 48.0 KHz
Bit depth : 16 bits
Compression mode : Lossy
Stream size : 72.9 MiB (7%)
Audio #2
ID : 189 (0xBD)-129 (0x81)
Format : AC-3
Format/Info : Audio Coding 3
Mode extension : CM (complete main)
Format settings, Endianness : Big
Muxing mode : DVD-Video
Duration : 22mn 45s
Bit rate mode : Constant
Bit rate : 224 Kbps
Channel(s) : 1 channel
Channel positions : Front: C
Sampling rate : 48.0 KHz
Bit depth : 16 bits
Compression mode : Lossy
Stream size : 36.5 MiB (4%)
Menu

Скриншоты

[Профиль] [ЛС]
Показать сообщения:    

Текущее время: Сегодня 17:41

Часовой пояс: GMT



Вы не можете начинать темы
Вы не можете отвечать на сообщения
Вы не можете редактировать свои сообщения
Вы не можете удалять свои сообщения
Вы не можете голосовать в опросах
Вы не можете прикреплять файлы к сообщениям
Вы не можете скачивать файлы