Снайпер / American Sniper (2014) BDRip-AVC от R.G. HD-Films | 60 fps

 
Автор Сообщение

sergej644 ®

Пол:

Стаж: 4 года 11 месяцев

Сообщений: 6036

Откуда: Soviet Union



Награды: Нет

Торрент-статистика

Создавать темы 25-Июн-2015 22:34

[Цитировать]

-Название: Снайпер
Оригинальное название: American Sniper
Год выпуска: 2014
Страна: США
Жанр: боевик, триллер, военный, биография
Продолжительность: 02:12:39
Перевод: Дубляж
Субтитры: русские (Форсированные), русские (Полные), английские (Полные)-Режиссер: Клинт Иствуд / Clint Eastwood-В ролях: Брэдли Купер (Chris Kyle), Сиенна Миллер (Taya), Кайл Галлнер (Goat-Winston), Коул Конис (Young Chris Kyle), Бен Рид (Wayne Kyle), Элиз Робертсон (Deby Kyle), Люк Саншайн (Young Jeff Kyle), Трой Винсент (Pastor), Брэндон Сальгадо (Bully), Кейр О’Доннелл (Jeff Kyle), Марне Паттерсон (Sarah), Джейсон Холл (Cowboy)-Описание:
Экранизация мемуаров «морского котика» из Техаса Криса Кайла, который служил снайпером в Ираке и стал рекордсменом по числу убитых солдат противника, за что иракцы прозвали его дьяволом. Кроме самой войны, фильм рассказывает о воспоминаниях жены Криса, которая была свидетелем растущей привязанности мужа к его сослуживцам.-Рейтинг

imdb.com: 7.40 (222 637)
MPAA: R - Лицам до 17 лет обязательно присутствие взрослого-Качество: BDRip-AVC 60fps
Формат: MKV
Видео кодек: AVC
Аудио кодек:AC3
Видео: AVC, 1024x424 (2.40:1), 3800 kbps, 59,940 fps, 0,146 bpp
Аудио: русский / AC3 / 5.1 / 48 kHz / 448 kbps / 16 bit |Дубляж|
Навигация по главам: есть- -

MI

General
Unique ID : 234447580462204954108566741274637327345 (0xB060F628CDFDEFE684F73C6FFCBF5BF1)
Format : Matroska
Format version : Version 4 / Version 2
File size : 3.94 GiB
Duration : 2h 12mn
Overall bit rate : 4 253 Kbps
Movie name : Tiberiumsun69
Encoded date : UTC 2015-06-25 12:27:48
Writing application : mkvmerge v7.9.0 ('Birds') 64bit
Writing library : libebml v1.3.1 + libmatroska v1.4.2
Attachment : Yes
Video
ID : 1
Format : AVC
Format/Info : Advanced Video Codec
Format profile : High@L4.1
Format settings, CABAC : Yes
Format settings, ReFrames : 4 frames
Codec ID : V_MPEG4/ISO/AVC
Duration : 2h 12mn
Bit rate : 3 800 Kbps
Width : 1 024 pixels
Height : 424 pixels
Display aspect ratio : 2.40:1
Frame rate : 59.940 fps
Color space : YUV
Chroma subsampling : 4:2:0
Bit depth : 8 bits
Scan type : Progressive
Bits/(Pixel*Frame) : 0.146
Stream size : 3.45 GiB (87%)
Title : Tiberiumsun69
Writing library : x264 core 146 r2538 121396c
Encoding settings : cabac=1 / ref=4 / deblock=1:0:0 / analyse=0x3:0x113 / me=umh / subme=9 / psy=1 / psy_rd=1.00:0.10 / mixed_ref=1 / me_range=32 / chroma_me=1 / trellis=2 / 8x8dct=1 / cqm=0 / deadzone=21,11 / fast_pskip=0 / chroma_qp_offset=-3 / threads=12 / lookahead_threads=3 / sliced_threads=0 / nr=0 / decimate=1 / interlaced=0 / bluray_compat=0 / constrained_intra=0 / bframes=16 / b_pyramid=2 / b_adapt=2 / b_bias=0 / direct=3 / weightb=1 / open_gop=0 / weightp=2 / keyint=600 / keyint_min=59 / scenecut=40 / intra_refresh=0 / rc_lookahead=60 / rc=2pass / mbtree=1 / bitrate=3800 / ratetol=1.0 / qcomp=0.60 / qpmin=0 / qpmax=69 / qpstep=4 / cplxblur=20.0 / qblur=0.5 / vbv_maxrate=50000 / vbv_bufsize=62500 / nal_hrd=none / filler=0 / ip_ratio=1.40 / aq=1:1.00
Language : English
Default : Yes
Forced : No
Audio
ID : 2
Format : AC-3
Format/Info : Audio Coding 3
Mode extension : CM (complete main)
Codec ID : A_AC3
Duration : 2h 12mn
Bit rate mode : Constant
Bit rate : 448 Kbps
Channel(s) : 6 channels
Channel positions : Front: L C R, Side: L R, LFE
Sampling rate : 48.0 KHz
Bit depth : 16 bits
Compression mode : Lossy
Stream size : 425 MiB (11%)
Title : Дубляж
Language : Russian
Default : Yes
Forced : No
Text #1
ID : 3
Format : UTF-8
Codec ID : S_TEXT/UTF8
Codec ID/Info : UTF-8 Plain Text
Title : Форсированные
Language : Russian
Default : Yes
Forced : No
Text #2
ID : 4
Format : UTF-8
Codec ID : S_TEXT/UTF8
Codec ID/Info : UTF-8 Plain Text
Title : Полные
Language : Russian
Default : No
Forced : No
Text #3
ID : 5
Format : UTF-8
Codec ID : S_TEXT/UTF8
Codec ID/Info : UTF-8 Plain Text
Title : Полные
Language : English
Default : No
Forced : No
Menu
00:00:00.000 : en:00:00:00.000
00:10:15.240 : en:00:10:15.240
00:18:56.927 : en:00:18:56.927
00:28:27.581 : en:00:28:27.581
00:39:04.425 : en:00:39:04.425
00:50:57.638 : en:00:50:57.638
01:00:06.728 : en:01:00:06.728
01:07:56.447 : en:01:07:56.447
01:28:44.027 : en:01:28:44.027
01:37:24.714 : en:01:37:24.714
01:45:57.351 : en:01:45:57.351
01:54:44.002 : en:01:54:44.002
02:04:13.363 : en:02:04:13.363

Скриншоты


[Профиль] [ЛС]
Показать сообщения:    

Текущее время: Сегодня 14:03

Часовой пояс: GMT



Вы не можете начинать темы
Вы не можете отвечать на сообщения
Вы не можете редактировать свои сообщения
Вы не можете удалять свои сообщения
Вы не можете голосовать в опросах
Вы не можете прикреплять файлы к сообщениям
Вы не можете скачивать файлы