Снайпер / American Sniper (Клинт Иствуд / Clint Eastwood) [2014, США, боевик, триллер, военный, биография, HDRip] Dub (iTunes) + Original Eng

 
Автор Сообщение

AleksSin ®

Пол:

Стаж: 5 лет 11 месяцев

Сообщений: 218



Награды: 4 (Подробнее)

Mega Seeder 4 (Количество: 1) Mega Seeder 2 (Количество: 1) Mega Seeder 1 (Количество: 1)
Торрент-статистика

Создавать темы 07-Май-2015 17:25

[Цитировать]

Снайпер / American Sniper«Под прицелом у смерти» Страна: США
Жанр: боевик, триллер, военный, биография
Год выпуска: 2014
Продолжительность: 02:12:39
Перевод: Профессиональный (дублированный) iTunes
Cубтитры: Русские, английские
Оригинальная аудиодорожка: английский
Режиссер: Клинт Иствуд / Clint Eastwood
В ролях: Брэдли Купер, Сиенна Миллер, Кайл Галлнер, Бен Рид, Элиз Робертсон, Люк Саншайн, Трой Винсент, Брэндон Сальгадо, Кейр О’Доннелл, Марне Паттерсон
Описание: Экранизация мемуаров «морского котика» из Техаса Криса Кайла, который служил снайпером в Ираке и стал рекордсменом по числу убитых солдат противника, за что иракцы прозвали его дьяволом. Кроме самой войны, фильм рассказывает о воспоминаниях жены Криса, которая была свидетелем растущей привязанности мужа к его сослуживцам

Качество видео: HDRip (Исх. BDRip 720p)
Формат видео: AVI
Видео кодек: XviD
Аудио кодек: AC3
Видео: 720x304 (2.37:1), 23.976 fps, XviD build 73 ~1560 kbps avg, 0.30 bit/pixel
Аудио: 48 kHz, AC3 Dolby Digital, 3/2 (L,C,R,l,r) + LFE ch, ~384.00 kbps avg (Русский)
Аудио 2: 48 kHz, AC3 Dolby Digital, 3/2 (L,C,R,l,r) + LFE ch, ~384.00 kbps avg (Английский)
Формат субтитров: softsub (SRT)

MediaInfo

Общее
Полное имя : S:ФильмыСнайпер. 2014. HDRip. 2.17 (AleksSin)Снайпер. 2014. HDRip (AleksSin).avi
Формат : AVI
Формат/Информация : Audio Video Interleave
Профиль формата : OpenDML
Размер файла : 2,17 Гбайт
Продолжительность : 2 ч. 12 м.
Общий поток : 2346 Кбит/сек
Программа кодирования : VirtualDubModRus 1.5.10.2 (build 2542/release)
Библиотека кодирования : VirtualDubMod build 2542/release
Видео
Идентификатор : 0
Формат : MPEG-4 Visual
Профиль формата : Advanced Simple@L5
Параметр BVOP формата : 1
Параметр QPel формата : Нет
Параметр GMC формата : Без точки перехода
Параметр матрицы формата : Выборочная
Идентификатор кодека : XVID
Идентификатор кодека/Подсказка : XviD
Продолжительность : 2 ч. 12 м.
Битрейт : 1560 Кбит/сек
Ширина : 720 пикс.
Высота : 304 пикс.
Соотношение сторон : 2,35:1
Частота кадров : 23,976 кадр/сек
Цветовое пространство : YUV
Подвыборка цветности : 4:2:0
Битовая глубина : 8 бит
Тип развёртки : Прогрессивная
Метод сжатия : С потерями
Бит/(Пиксели*Кадры) : 0.297
Размер потока : 1,45 Гбайт (67%)
Библиотека кодирования : XviD 73
Аудио #1
Идентификатор : 1
Формат : AC-3
Формат/Информация : Audio Coding 3
Расширение режима : CM (complete main)
Идентификатор кодека : 2000
Продолжительность : 2 ч. 12 м.
Вид битрейта : Постоянный
Битрейт : 384 Кбит/сек
Каналы : 6 каналов
Расположение каналов : Front: L C R, Side: L R, LFE
Частота : 48,0 КГц
Битовая глубина : 16 бит
Метод сжатия : С потерями
Размер потока : 364 Мбайт (16%)
Выравнивание : Разделение по промежуткам
Продолжительность промежутка : 42 мс. (1,00 видеокадр)
Время предзагрузки промежутка : 500 ms
Аудио #2
Идентификатор : 2
Формат : AC-3
Формат/Информация : Audio Coding 3
Расширение режима : CM (complete main)
Идентификатор кодека : 2000
Продолжительность : 2 ч. 12 м.
Вид битрейта : Постоянный
Битрейт : 384 Кбит/сек
Каналы : 6 каналов
Расположение каналов : Front: L C R, Side: L R, LFE
Частота : 48,0 КГц
Битовая глубина : 16 бит
Метод сжатия : С потерями
Размер потока : 364 Мбайт (16%)
Выравнивание : Разделение по промежуткам
Продолжительность промежутка : 42 мс. (1,00 видеокадр)
Время предзагрузки промежутка : 500 ms1

Скриншоты

[Профиль] [ЛС]
Показать сообщения:    

Текущее время: Сегодня 07:00

Часовой пояс: GMT



Вы не можете начинать темы
Вы не можете отвечать на сообщения
Вы не можете редактировать свои сообщения
Вы не можете удалять свои сообщения
Вы не можете голосовать в опросах
Вы не можете прикреплять файлы к сообщениям
Вы не можете скачивать файлы