Снайпер / American Sniper (2014) BDRip 1080p | Чистый звук

 
Автор Сообщение

Russian Mafia ®

Пол:

Стаж: 1 год 8 месяцев

Сообщений: 4247



Награды: 10 (Подробнее)

Mega Seeder 1 (Количество: 1) Top Releaser 2 (Количество: 1) Top Releaser 4 (Количество: 1)
Торрент-статистика

Создавать темы 01-Май-2015 08:01

[Цитировать]

Информация о фильме
Название: Снайпер / Американский снайпер
Оригинальное название: American Sniper
Год выхода: 2014
Жанр: боевик, драма, военный, биография
Режиссер: Клинт Иствуд
В ролях: Брэдли Купер, Сиенна Миллер, Кайл Галлнер, Бен Рид, Элиз Робертсон, Люк Саншайн, Трой Винсент, Брэндон Сальгадо, Кейр О’Доннелл, Марне Паттерсон
О фильме: Он морской пехотинец из штата Техас по имени Крис. Так сложилось, что судьба закинула его в Ирак. Там-то он и проявил себя: он побил своеобразный рекорд – убил самого большое число противников. С его «результатами» было сложно сравниться. Поэтому и назвали его иракцы дьяволом. Но кроме описания военных реалий, действий и операций, здесь приводятся воспоминания его жены – женщины, которой пришлось делить своего любимого с войной. Крис всё больше и больше привязывался не только к тем людям, с которыми ему пришлось делить скромное жильё, обед и трудности войны, но и к самой войне – к постоянной борьбе за жизнь…

Выпущено: США / Warner Bros., Village Roadshow Pictures, Mad Chance Productions
Продолжительность: 02:13:50
Озвучивание: Дублированное [Чистый звук]
Примечание: Присутствует около 6 минут вставок звука с TS
Файл
Формат: MKV (x264)
Качество: BDRip 1080p
Видео: 1920x800, 11000 kb/s
Аудио: Russian: AC3, 256 kb/s (2 ch) / English: AC3, 640 kb/s (6 ch)
Размер: 11.0 GB
Скачать: Сэмпл---

Media Info

Snyper.2014.D.BDRip.1080p.mkv
Формат : Matroska
Версия формата : Version 4 / Version 2
Размер файла : 11,0 Гбайт
Продолжительность : 2 ч. 12 м.
Общий поток : 11,8 Мбит/сек
Название фильма : EVO
Дата кодирования : UTC 2015-04-30 20:26:25
Программа кодирования : mkvmerge v6.9.1 ('Blue Panther') 64bit built on Apr 18 2014 18:23:38
Библиотека кодирования : libebml v1.3.0 + libmatroska v1.4.1
Видео
Идентификатор : 1
Формат : AVC
Формат/Информация : Advanced Video Codec
Профиль формата : High@L4.1
Параметр CABAC формата : Да
Параметр ReFrames формата : 4 кадра
Идентификатор кодека : V_MPEG4/ISO/AVC
Продолжительность : 2 ч. 12 м.
Битрейт : 11,0 Мбит/сек
Ширина : 1920 пикселей
Высота : 800 пикселей
Соотношение сторон : 2,40:1
Режим частоты кадров : Постоянный
Частота кадров : 23,976 кадра/сек
Цветовое пространство : YUV
Субдискретизация насыщенности : 4:2:0
Битовая глубина : 8 бит
Тип развёртки : Прогрессивная
Бит/(Пиксели*Кадры) : 0.299
Размер потока : 9,92 Гбайт (90%)
Библиотека кодирования : x264 core 130 r2273 b3065e6
Настройки программы : cabac=1 / ref=1 / deblock=1:0:0 / analyse=0x3:0x113 / me=hex / subme=2 / psy=1 / psy_rd=1.00:0.00 / mixed_ref=0 / me_range=16 / chroma_me=1 / trellis=0 / 8x8dct=1 / cqm=0 / deadzone=21,11 / fast_pskip=1 / chroma_qp_offset=0 / threads=6 / lookahead_threads=2 / sliced_threads=0 / nr=0 / decimate=1 / interlaced=0 / bluray_compat=0 / constrained_intra=0 / bframes=3 / b_pyramid=2 / b_adapt=1 / b_bias=0 / direct=1 / weightb=1 / open_gop=0 / weightp=1 / keyint=240 / keyint_min=24 / scenecut=40 / intra_refresh=0 / rc_lookahead=10 / rc=abr / mbtree=1 / bitrate=11000 / ratetol=1.0 / qcomp=0.60 / qpmin=0 / qpmax=69 / qpstep=4 / vbv_maxrate=62500 / vbv_bufsize=78125 / nal_hrd=none / ip_ratio=1.40 / aq=1:1.00
Язык : English
Default : Да
Forced : Нет
Основные цвета : BT.709
Характеристики трансфера : BT.709
Коэффициенты матрицы : BT.709
colour_range : Limited
Аудио #1
Идентификатор : 2
Формат : AC-3
Формат/Информация : Audio Coding 3
Расширение режима : CM (complete main)
Параметр Endianness формата : Big
Идентификатор кодека : A_AC3
Продолжительность : 2 ч. 12 м.
Вид битрейта : Постоянный
Битрейт : 256 Кбит/сек
Каналы : 2 канала
Расположение каналов : Front: L R
Частота : 48,0 КГц
Битовая глубина : 16 бит
Метод сжатия : С потерями
Размер потока : 243 Мбайт (2%)
Язык : Russian
Default : Да
Forced : Нет
Аудио #2
Идентификатор : 3
Формат : AC-3
Формат/Информация : Audio Coding 3
Расширение режима : CM (complete main)
Параметр Endianness формата : Big
Идентификатор кодека : A_AC3
Продолжительность : 2 ч. 12 м.
Вид битрейта : Постоянный
Битрейт : 640 Кбит/сек
Каналы : 6 каналов
Расположение каналов : Front: L C R, Side: L R, LFE
Частота : 48,0 КГц
Битовая глубина : 16 бит
Метод сжатия : С потерями
Размер потока : 607 Мбайт (5%)
Язык : English
Default : Нет
Forced : Нет
Меню
00:00:00.000 : en:Chapter 1
00:10:15.323 : en:Chapter 2
00:18:57.011 : en:Chapter 3
00:28:27.664 : en:Chapter 4
00:39:04.551 : en:Chapter 5
00:50:57.721 : en:Chapter 6
01:00:06.812 : en:Chapter 7
01:07:56.447 : en:Chapter 8
01:28:44.027 : en:Chapter 9
01:37:24.714 : en:Chapter 10
01:45:57.351 : en:Chapter 11
01:54:44.002 : en:Chapter 12
02:04:13.446 : en:Chapter 13
--- --- -
[Профиль] [ЛС]
Показать сообщения:    

Текущее время: Сегодня 14:37

Часовой пояс: GMT



Вы не можете начинать темы
Вы не можете отвечать на сообщения
Вы не можете редактировать свои сообщения
Вы не можете удалять свои сообщения
Вы не можете голосовать в опросах
Вы не можете прикреплять файлы к сообщениям
Вы не можете скачивать файлы