Снайпер / American Sniper(2014) BDRemux [H.264/1080p]

 
Автор Сообщение

достали все ®

Пол:

Стаж: 1 год 8 месяцев

Сообщений: 6565



Награды: 12 (Подробнее)

Top Releaser 3 (Количество: 1) Mega Seeder 5 (Количество: 1) Mega Releaser 1 (Количество: 1)
Торрент-статистика

Создавать темы 27-Апр-2015 08:55

[Цитировать]

-Снайпер / American Sniper(2014) BDRemux
«Под прицелом у смерти»
- Производство: США / Warner Bros., Village Roadshow Pictures, Mad Chance Productions
Жанр: боевик, драма, военный, биография
Режиссер: Клинт Иствуд
Актеры: Брэдли Купер, Сиенна Миллер, Кайл Галлнер, Коул Конис, Бен Рид, Элиз Робертсон, Люк Саншайн, Трой Винсент, Брэндон Сальгадо, Кейр О’Доннелл
Описание:
Экранизация мемуаров морского пехотинца из Техаса Криса Кайла, который служил снайпером в Ираке и стал рекордсменом по числу убитых солдат противника, за что иракцы прозвали его дьяволом. Помимо описания военных действий, книга состоит из отрывков воспоминаний жены Криса, ставшей свидетельницей того, как росла привязанность мужа к его соратникам и войне.

Дата мировой премьеры: 11 ноября 2014
Дата релиза на Blu-ray: 19 мая 2015 (USA, Warner Bros.)
Продолжительность: 02:12:37
Качество видео: BDRemux (BD25)
Перевод: Дублированный
Озвучка / Автор перевода: (Чистый звук)+TScr. Присутствует около 6 минут вставок звука с TS. (Спасибо, WetY)
Субтитры: Вшитые отключаемые
Язык субтитров: Английский
Видеокодек: AVC/MPEG-4
Битрейт видео: ~18 831 kbps
Размер кадра: 1 920x1080
Аудио #1: Русский - AC3 / 5.1 / 48.0 KHz / 448 Kbps (by WetY)
Аудио #2: Английский - AC3 / 5.1 / 48.0 KHz / 384 Kbps
Аудио #3: Испанский - AC3 / 5.1 / 48.0 KHz / 384 Kbps

MediaInfo

General
Unique ID                   : 243029211077896430612593202056214092948 (0xB6D5B937230D6DBDA4C55862B47C1C94)
Complete name               : F:\movie\American Sniper\American.Sniper.2014.1080p.BluRay.Remux.AVC.RU-Dl.AC3.mkv
Format                      : Matroska
Format version              : Version 4 / Version 2
File size                   : 18.6 GiB
Duration                    : 2h 12mn
Overall bit rate mode       : Variable
Overall bit rate            : 20.0 Mbps
Encoded date                : UTC 2015-04-26 13:05:15
Writing application         : mkvmerge v7.8.0 ('River Man') 32bit built on Mar 27 2015 16:18:02
Writing library             : libebml v1.3.1 + libmatroska v1.4.2
_STATISTICS_WRITING_APP     : mkvmerge v7.8.0 ('River Man') 32bit built on Mar 27 2015 16:18:02
_STATISTICS_WRITING_DATE_UT : 2015-04-26 13:05:15
_STATISTICS_TAGS            : BPS DURATION NUMBER_OF_FRAMES NUMBER_OF_BYTES
DURATION                    : 02:02:45.609000000
NUMBER_OF_FRAMES            : 1429
NUMBER_OF_BYTES             : 58327
Video
ID                          : 1
Format                      : AVC
Format/Info                 : Advanced Video Codec
Format profile              : [url=mailto:Main@L4.1]Main@L4.1[/url]
Format settings, CABAC      : Yes
Format settings, ReFrames   : 2 frames
Format settings, GOP        : M=3, N=24
Codec ID                    : V_MPEG4/ISO/AVC
Duration                    : 2h 12mn
Bit rate mode               : Variable
Bit rate                    : 18.4 Mbps
Maximum bit rate            : 40.0 Mbps
Width                       : 1 920 pixels
Height                      : 1 080 pixels
Display aspect ratio        : 16:9
Frame rate mode             : Constant
Frame rate                  : 23.976 fps
Color space                 : YUV
Chroma subsampling          : 4:2:0
Bit depth                   : 8 bits
Scan type                   : Progressive
Bits/(Pixel*Frame)          : 0.371
Stream size                 : 17.1 GiB (92%)
Default                     : Yes
Forced                      : No
Audio #1
ID                          : 2
Format                      : AC-3
Format/Info                 : Audio Coding 3
Mode extension              : CM (complete main)
Format settings, Endianness : Big
Codec ID                    : A_AC3
Duration                    : 2h 12mn
Bit rate mode               : Constant
Bit rate                    : 448 Kbps
Channel(s)                  : 6 channels
Channel positions           : Front: L C R, Side: L R, LFE
Sampling rate               : 48.0 KHz
Bit depth                   : 16 bits
Compression mode            : Lossy
Stream size                 : 425 MiB (2%)
Title                       : Dub (line) + TScr
Language                    : Russian
Default                     : No
Forced                      : No
Audio #2
ID                          : 3
Format                      : AC-3
Format/Info                 : Audio Coding 3
Mode extension              : CM (complete main)
Format settings, Endianness : Big
Codec ID                    : A_AC3
Duration                    : 2h 12mn
Bit rate mode               : Constant
Bit rate                    : 384 Kbps
Channel(s)                  : 6 channels
Channel positions           : Front: L C R, Side: L R, LFE
Sampling rate               : 48.0 KHz
Bit depth                   : 16 bits
Compression mode            : Lossy
Stream size                 : 364 MiB (2%)
Language                    : English
Default                     : No
Forced                      : No
Audio #3
ID                          : 4
Format                      : AC-3
Format/Info                 : Audio Coding 3
Mode extension              : CM (complete main)
Format settings, Endianness : Big
Codec ID                    : A_AC3
Duration                    : 2h 12mn
Bit rate mode               : Constant
Bit rate                    : 384 Kbps
Channel(s)                  : 6 channels
Channel positions           : Front: L C R, Side: L R, LFE
Sampling rate               : 48.0 KHz
Bit depth                   : 16 bits
Compression mode            : Lossy
Stream size                 : 364 MiB (2%)
Language                    : Spanish
Default                     : No
Forced                      : No
Text
ID                          : 5
Format                      : UTF-8
Codec ID                    : S_TEXT/UTF8
Codec ID/Info               : UTF-8 Plain Text
Default                     : Yes
Forced                      : No
Menu
00:00:00.000                : en:00:00:00.000
00:11:03.145                : en:00:11:03.145
00:22:06.291                : en:00:22:06.291
00:33:09.437                : en:00:33:09.437
00:44:12.582                : en:00:44:12.582
00:55:15.728                : en:00:55:15.728
01:06:18.874                : en:01:06:18.874
01:17:22.020                : en:01:17:22.020
01:28:25.165                : en:01:28:25.165
01:39:28.311                : en:01:39:28.311
01:50:31.457                : en:01:50:31.457
02:01:34.603                : en:02:01:34.603
Скриншоты:
[Профиль] [ЛС]
Показать сообщения:    

Текущее время: Сегодня 12:31

Часовой пояс: GMT



Вы не можете начинать темы
Вы не можете отвечать на сообщения
Вы не можете редактировать свои сообщения
Вы не можете удалять свои сообщения
Вы не можете голосовать в опросах
Вы не можете прикреплять файлы к сообщениям
Вы не можете скачивать файлы