Снайпер: Наследие / Sniper: Legacy (2014) WEB-DL 720p | ATV | P

 
Автор Сообщение

sergej644 ®

Пол:

Стаж: 4 года 11 месяцев

Сообщений: 6045

Откуда: Soviet Union



Награды: Нет

Торрент-статистика

Создавать темы 10-Фев-2015 08:59

[Цитировать]

Снайпер: Наследие / Sniper: Legacy (2014) WEB-DL 720p | ATV | P
-Год выпуска: 2014
Производство: США / BUFOs
Жанр: боевик
Режиссер: Дон Майкл Пол
В ролях: Том Беренджер, Чад Коллинз, Деннис Хейсбёрт, Асен Асенов, Василь Энев, Данко Йорданов, Доминик Мафэм, Мерседес Масон, Вун Янг Парк, Райчо Василев
Описание:
Брендону сообщают, что дезертировавший американский снайпер убил его отца. Собрав небольшой отряд, он решает выследить убийцу. В процессе поисков он узнает, что его отец не умер, после чего Брендон начинает понимать, что старшие офицеры использовали его в качестве приманки….

Продолжительность: 01:37:59
Перевод: Профессиональный многоголосый закадровый
Cубтитры: Отсутствует
Качество: WEB-DL [720p]
Видео: MPEG-4 AVC/H.264, 1280x720 (16:9), 4 000 kbps, 23.976 fps
Аудио 1: Русский/Профессиональный многоголосый закадровый, AAC / 2.0 / 160 Kbps / 48.0 KHz
Аудио 2: Русский/Профессиональный многоголосый закадровый, AC3 / 5.1 / 384 Kbps / 48.0 KHz
Аудио 3: Английский/Оригинальный, AAC / 2.0 / 160 Kbps / 48.0 KHz

iTunes Meta Tags

Sort Name: Sniper: Legacy
XID: Apple:vendor_id:2014-842126
Content ID: 910467579
Copyright: BUFO
ScreenWriters: Джон Фазано, Дон Майкл Пол
Producers: Джеффри Бич, Филлип Дж. Рот, Чериз Хони
Director: Дон Майкл Пол
Cast: Tom Berenger (Thomas Beckett), Chad Michael Collins (Brandon Beckett), Dennis Haysbert (The Colonel), Asen Asenov (Policeman), Mercedes Mason (Sanaa (as Mercedes Masöhn)), Dominic Mafham (Bidwell), Woon Young Park (Cantara)
Rating: R
Long Deion: Брендону сообщают, что дезертировавший американский снайпер убил его отца. Собрав небольшой отряд, он решает выследить убийцу. В процессе поисков он узнает, что его отец не умер, после чего Брендон начинает понимать, что старшие офицеры использовали его в качестве приманки….
Deion: Брендону сообщают, что дезертировавший американский снайпер убил его отца. Собрав небольшой отряд, он решает выследить убийцу. В процессе поисков он узнает, что его отец не умер, Брендон начинает понимать, что офицеры использовали его в качестве при
Release Date: 2014-09-30T07:00:00Z
Genre: Action & Adventure
Artist: Don Michael Paul
Name: Снайпер: Наследие

MediaInfo

General
Complete name : C:CREATE264mod1outSniper.Legacy.2014.WEB-DL.720p.P.m4v
Format : MPEG-4
Codec ID : M4V
File size : 3.23 GiB
Duration : 1h 37mn
Overall bit rate mode : Variable
Overall bit rate : 4 713 Kbps
Movie name : Снайпер: Наследие
Performer : Don Michael Paul
Genre : Action & Adventure
ContentType : Short Film
Deion : Брендону сообщают, что дезертировавший американский снайпер убил его отца. Собрав небольшой отряд, он решает выследить убийцу. В процессе поисков он узнает, что его отец не умер, Брендон начинает понимать, что офицеры использовали его в качестве при
Recorded date : UTC 2014-09-30 07:00:00
Encoded date : UTC 2014-09-30 18:23:41
Tagged date : UTC 2014-09-30 18:33:21
Copyright : BUFO
Cover : Yes
ContentRating : mpaa|R|400|
Title/Sort : Sniper: Legacy
LongDeion : Брендону сообщают, что дезертировавший американский снайпер убил его отца. Собрав небольшой отряд, он решает выследить убийцу. В процессе поисков он узнает, что его отец не умер, после чего Брендон начинает понимать, что старшие офицеры использовали его в качестве приманки….
HDVideo : Yes
AppleStoreCatalogID : 910467579
Vendor : Apple:vendor_id:2014-842126
Video
ID : 1
Format : AVC
Format/Info : Advanced Video Codec
Format profile : High@L4.0
Format settings, CABAC : Yes
Format settings, ReFrames : 4 frames
Codec ID : avc1
Codec ID/Info : Advanced Video Coding
Duration : 1h 37mn
Bit rate : 4 000 Kbps
Maximum bit rate : 11.6 Mbps
Width : 1 280 pixels
Height : 720 pixels
Display aspect ratio : 16:9
Frame rate mode : Constant
Frame rate : 23.976 fps
Color space : YUV
Chroma subsampling : 4:2:0
Bit depth : 8 bits
Scan type : Progressive
Bits/(Pixel*Frame) : 0.181
Stream size : 2.74 GiB (85%)
Writing library : x264 core 142 r2431+42 c69a006 tMod [8-bit@all X86_64]
Encoding settings : cabac=1 / ref=4 / deblock=1:0:0 / analyse=0x3:0x133 / me=dia / subme=2 / psy=1 / fade_compensate=0.00 / psy_rd=1.00:0.00 / mixed_ref=1 / me_range=16 / chroma_me=1 / trellis=2 / 8x8dct=1 / cqm=0 / deadzone=21,11 / fast_pskip=0 / chroma_qp_offset=-2 / threads=12 / lookahead_threads=5 / sliced_threads=0 / nr=0 / decimate=1 / interlaced=0 / bluray_compat=0 / constrained_intra=0 / fgo=0 / bframes=2 / b_pyramid=2 / b_adapt=2 / b_bias=0 / direct=3 / weightb=1 / open_gop=0 / weightp=2 / keyint=240 / keyint_min=23 / scenecut=40 / intra_refresh=0 / rc=2pass / mbtree=0 / bitrate=4000 / ratetol=1.0 / qcomp=0.60 / qpmin=0:0:0 / qpmax=69:69:69 / qpstep=4 / cplxblur=20.0 / qblur=0.5 / ip_ratio=1.40 / pb_ratio=1.30 / aq=1:1.00 / aq-sensitivity=10.00 / aq-factor=1.00:1.00:1.00 / aq2=0 / aq3=0
Language : English
Encoded date : UTC 2014-09-30 18:23:41
Tagged date : UTC 2014-09-30 18:24:21
Audio #1
ID : 2
Format : AAC
Format/Info : Advanced Audio Codec
Format profile : LC
Codec ID : 40
Duration : 1h 37mn
Bit rate mode : Variable
Bit rate : 159 Kbps
Maximum bit rate : 250 Kbps
Channel(s) : 2 channels
Channel positions : Front: L R
Sampling rate : 48.0 KHz
Compression mode : Lossy
Stream size : 111 MiB (3%)
Title : MVO
Language : Russian
Encoded date : UTC 2014-09-30 18:24:04
Tagged date : UTC 2014-09-30 18:24:21
Audio #2
ID : 3
Format : AC-3
Format/Info : Audio Coding 3
Mode extension : CM (complete main)
Format settings, Endianness : Big
Codec ID : ac-3
Duration : 1h 37mn
Bit rate mode : Constant
Bit rate : 384 Kbps
Channel(s) : 6 channels
Channel positions : Front: L C R, Side: L R, LFE
Sampling rate : 48.0 KHz
Bit depth : 16 bits
Compression mode : Lossy
Stream size : 269 MiB (8%)
Title : MVO
Language : Russian
Encoded date : UTC 2014-09-30 18:24:11
Tagged date : UTC 2014-09-30 18:24:21
Audio #3
ID : 4
Format : AAC
Format/Info : Advanced Audio Codec
Format profile : LC
Codec ID : 40
Duration : 1h 37mn
Bit rate mode : Variable
Bit rate : 161 Kbps
Maximum bit rate : 248 Kbps
Channel(s) : 2 channels
Channel positions : Front: L R
Sampling rate : 48.0 KHz
Compression mode : Lossy
Stream size : 113 MiB (3%)
Title : original
Language : English
Encoded date : UTC 2014-09-30 18:24:15
Tagged date : UTC 2014-09-30 18:24:21
Menu
ID : 5
Codec ID : text
Duration : 1h 37mn
Encoded date : UTC 2014-09-30 18:25:17
Tagged date : UTC 2014-09-30 18:25:17
Bit rate mode : VBR

Screenshots

[Профиль] [ЛС]
Показать сообщения:    

Текущее время: Сегодня 09:59

Часовой пояс: GMT



Вы не можете начинать темы
Вы не можете отвечать на сообщения
Вы не можете редактировать свои сообщения
Вы не можете удалять свои сообщения
Вы не можете голосовать в опросах
Вы не можете прикреплять файлы к сообщениям
Вы не можете скачивать файлы