Смурфики: Затерянная деревня / Smurfs: The Lost Village (2017) UHD BDRemux 2160p | 4K | HDR | Лицензия

 
Автор Сообщение

BOSS ®

Пол:

Стаж: 3 года

Сообщений: 7633

Откуда: ODESSA



Награды: 22 (Подробнее)

Mega Seeder 5 (Количество: 1) Top Keeper 4 (Количество: 1) Top Keeper 2 (Количество: 1)
Торрент-статистика

Создавать темы 13-Окт-2017 05:06

[Цитировать]

Информация о фильме
Название: Смурфики: Затерянная деревня
Оригинальное название: Smurfs: The Lost Village
Год выхода: 2017
Жанр: Мультфильм, фэнтези, комедия, приключения, семейный
Режиссер: Келли Эсбёри
В ролях: Ариэль Уинтер, Джо Манганьелло, Мишель Родригес, Джулия Робертс, Элли Кемпер, Мэнди Пэтинкин, Рэйн Уилсон, Деми Ловато, Джейк Джонсон, Джек МакБрайер
О фильме:
Смурфетта и её лучшие друзья, Умник, Растяпа и Силач, отправляются на поиски таинственной затерянной деревни, стремясь опередить злобного волшебника Гаргамеля. В пути смурфиков ожидают невероятные опасности и головокружительные приключения, но игра стоит свеч, ведь в конечном итоге герои смогут разгадать самую большую загадку в истории своего существования

Страна: США
Студия: Columbia Pictures, Sony Pictures Animation
Продолжительность: 01:29:46
Перевод: Дублированный | Лицензия
Файл
Качество: BDRemux 2160p
Видео: MPEG-H HEVC HDR Video, 3840x2160, 49.7 Mbit/s, 23.976 fps
Звук:
Аудио #01: 48 kHz, AC3, 5.1, 640 Kbps | Дублированный | RUS |
Аудио #02: 48 kHz, TrueHD, 7.1, 5669 Kbps | Оригинал | ENG |
Аудио #03: 48 kHz, AC3, 5.1, 640 Kbps | Оригинал | ENG |
Субтитры: Русские (forced, full), английские

MI

General
Unique ID : 215964084504137980456608715206904411766 (0xA2792B732792AFCC97E8DCC4BC8A7676)
Complete name : F:VideoSSDSmurfs.The.Lost.Village.2017.BDREMUX.2160p.4K.UltraHD.HEVC.HDR.ExKinoRay.mkv
Format : Matroska
Format version : Version 4 / Version 2
File size : 35.6 GiB
Duration : 1 h 29 min
Overall bit rate mode : Variable
Overall bit rate : 56.7 Mb/s
Encoded date : UTC 2017-10-12 22:00:29
Writing application : mkvmerge v16.0.0 ('Protest') 64-bit
Writing library : libebml v1.3.5 + libmatroska v1.4.8
Video
ID : 1
Format : HEVC
Format/Info : High Efficiency Video Coding
Format profile : Main 10@L5.1@High
Codec ID : V_MPEGH/ISO/HEVC
Duration : 1 h 29 min
Bit rate : 49.7 Mb/s
Width : 3 840 pixels
Height : 2 160 pixels
Display aspect ratio : 16:9
Frame rate mode : Constant
Frame rate : 23.976 (24000/1001) FPS
Color space : YUV
Chroma subsampling : 4:2:0 (Type 2)
Bit depth : 10 bits
Bits/(Pixel*Frame) : 0.250
Stream size : 31.2 GiB (88%)
Language : English
Default : Yes
Forced : No
Color range : Limited
Color primaries : BT.2020
Transfer characteristics : PQ
Matrix coefficients : BT.2020 non-constant
Mastering display color pri : R: x=0.680000 y=0.320000, G: x=0.265000 y=0.690000, B: x=0.150000 y=0.060000, White point: x=0.312700 y=0.329000
Mastering display luminance : min: 0.0050 cd/m2, max: 4000.0000 cd/m2
Maximum Content Light Level : 722 cd/m2
Maximum Frame-Average Light : 353 cd/m2
Audio #1
ID : 2
Format : AC-3
Format/Info : Audio Coding 3
Format settings, Endianness : Big
Codec ID : A_AC3
Duration : 1 h 29 min
Bit rate mode : Constant
Bit rate : 640 kb/s
Channel(s) : 6 channels
Channel positions : Front: L C R, Side: L R, LFE
Sampling rate : 48.0 kHz
Frame rate : 31.250 FPS (1536 SPF)
Bit depth : 16 bits
Compression mode : Lossy
Stream size : 411 MiB (1%)
Title : Dub [License]
Language : Russian
Service kind : Complete Main
Default : Yes
Forced : No
Audio #2
ID : 3
Format : TrueHD
Format profile : TrueHD+Atmos / TrueHD
Codec ID : A_TRUEHD
Duration : 1 h 29 min
Bit rate mode : Variable
Bit rate : 5 669 kb/s
Maximum bit rate : 8 469 kb/s
Channel(s) : Object Based / 8 channels
Channel positions : Object Based / Front: L C R, Side: L R, Back: L R, LFE
Sampling rate : / 48.0 kHz
Frame rate : 1 200.000 FPS (40 SPF)
Compression mode : Lossless
Stream size : 3.55 GiB (10%)
Title : Original
Language : English
Default : No
Forced : No
Audio #3
ID : 4
Format : AC-3
Format/Info : Audio Coding 3
Format settings, Endianness : Big
Codec ID : A_AC3
Duration : 1 h 29 min
Bit rate mode : Constant
Bit rate : 640 kb/s
Channel(s) : 6 channels
Channel positions : Front: L C R, Side: L R, LFE
Sampling rate : 48.0 kHz
Frame rate : 31.250 FPS (1536 SPF)
Bit depth : 16 bits
Compression mode : Lossy
Stream size : 411 MiB (1%)
Language : English
Service kind : Complete Main
Default : No
Forced : No
Text #1
ID : 5
Format : UTF-8
Codec ID : S_TEXT/UTF8
Codec ID/Info : UTF-8 Plain Text
Duration : 3 s 379 ms
Bit rate : 127 b/s
Count of elements : 1
Stream size : 54.0 Bytes (0%)
Title : Forced
Language : Russian
Default : Yes
Forced : No
Text #2
ID : 6
Format : UTF-8
Codec ID : S_TEXT/UTF8
Codec ID/Info : UTF-8 Plain Text
Duration : 1 h 28 min
Bit rate : 91 b/s
Count of elements : 1099
Stream size : 59.5 KiB (0%)
Title : Full
Language : Russian
Default : No
Forced : No
Text #3
ID : 7
Format : UTF-8
Codec ID : S_TEXT/UTF8
Codec ID/Info : UTF-8 Plain Text
Duration : 1 h 25 min
Bit rate : 56 b/s
Count of elements : 1094
Stream size : 35.0 KiB (0%)
Title : Full
Language : English
Default : No
Forced : No
Text #4
ID : 8
Format : UTF-8
Codec ID : S_TEXT/UTF8
Codec ID/Info : UTF-8 Plain Text
Duration : 1 h 28 min
Bit rate : 77 b/s
Count of elements : 1753
Stream size : 50.1 KiB (0%)
Title : SDH
Language : English
Default : No
Forced : No
Text #5
ID : 9
Format : UTF-8
Codec ID : S_TEXT/UTF8
Codec ID/Info : UTF-8 Plain Text
Duration : 1 h 29 min
Bit rate : 113 b/s
Count of elements : 1755
Stream size : 74.8 KiB (0%)
Title : SDH (Colored)
Language : English
Default : No
Forced : No
Menu
00:00:00.000 : en:00:00:00.000
00:08:48.445 : en:00:08:48.445
00:11:03.413 : en:00:11:03.413
00:14:33.748 : en:00:14:33.748
00:21:21.071 : en:00:21:21.071
00:27:25.143 : en:00:27:25.143
00:30:33.540 : en:00:30:33.540
00:36:49.082 : en:00:36:49.082
00:42:41.350 : en:00:42:41.350
00:45:58.673 : en:00:45:58.673
00:50:35.950 : en:00:50:35.950
00:55:41.964 : en:00:55:41.964
00:57:03.587 : en:00:57:03.587
01:02:35.293 : en:01:02:35.293
01:09:07.769 : en:01:09:07.769
01:14:39.475 : en:01:14:39.475
01:19:34.478 : en:01:19:34.478
[Профиль] [ЛС]
Кто просматривает тему:

Форум Тема Автор Размер
Зарубежные Мультфильмы (BDRip 1080p, 720p, Blu-ray, BD-Remux. 4K) Смурфики / The Smurfs (2011) BDRip 1080p BOSS 4.37 GB
Зарубежные Мультфильмы (BDRip 1080p, 720p, Blu-ray, BD-Remux. 4K) Смурфики 2 / The Smurfs 2 (2013) BDRip 2160p | D BOSS 34.61 GB
Зарубежные Мультфильмы (BDRip 1080p, 720p, Blu-ray, BD-Remux. 4K) Смурфики 2 / The Smurfs 2 (2013) BDRip 720p | D BOSS 4.69 GB
Зарубежные Мультфильмы (BDRip 1080p, 720p, Blu-ray, BD-Remux. 4K) Смурфики 2 / The Smurfs 2 (2013) UHD BDRemux 2160p | 4K | Лицензия BOSS 47.42 GB
Зарубежные Смурфики 2 3Д / The Smurfs 2 3D (Раджа Госнелл / Raja Gosnell) [2013, США, фэнтези, комедия, семейный, мультфильм, Blu-ray Disc 1080p] BD3D CEE TorrentFilm 34.34 GB
3D Мультфильмы Смурфики 2 в 3Д / The Smurfs 2 3D (Раджа Госнелл / Raja Gosnell) [2013, Мультфильм, Фэнтези, Комедия, Семейный, BDrip-AVC] Half OverUnder / Вертикальная анаморфная стереопара reversefile 9.8 GB
3D Мультфильмы Смурфики в 3Д / The Smurfs 3D (Раджа Госнелл / Raja Gosnell) [2011, США, Фэнтези, Комедия, Приключения, Семейный, Blu-ray Disc (custom) 1080p] BD3D Dub (Rus) + Dub (Ukr) + Original (Eng) + Sub (Rus,... BOSS 34.7 GB
Зарубежные Смурфики в 3Д / The Smurfs 3D (Раджа Госнелл / Raja Gosnell) [2011, Фэнтези, комедия, приключения, BDremux, 1080p] BD3D TorrentFilm 26.15 GB
Показать сообщения:    

Текущее время: Сегодня 18:59

Часовой пояс: GMT



Вы не можете начинать темы
Вы не можете отвечать на сообщения
Вы не можете редактировать свои сообщения
Вы не можете удалять свои сообщения
Вы не можете голосовать в опросах
Вы не можете прикреплять файлы к сообщениям
Вы не можете скачивать файлы