Смитти / Smitty (2012) BDRip 1080p от ivandubskoj | P

 
Автор Сообщение

Russian Mafia ®

Пол:

Стаж: 1 год 8 месяцев

Сообщений: 4255



Награды: 10 (Подробнее)

Mega Seeder 2 (Количество: 1) Top Releaser 4 (Количество: 1) Mega Seeder 1 (Количество: 1)
Торрент-статистика

Создавать темы 10-Авг-2016 19:23

[Цитировать]

Информация о фильме
Название: Смитти
Оригинальное название: Smitty
Год выхода: 2012
Жанр: Драма, семейный
Режиссёр: Дэвид М. Эванс
В ролях: Брэндон Тайлер Расселл, Мира Сорвино, Питер Фонда, Луис Госсет мл., Джейсон Лондон, Бу Бу Стюарт, Лолита Давидович, Тори Вайз, Дэйзи Хэмилтон, Гэбриэлль Буи
О фильме:
Вредного тринадцатилетнего пацана посылают на всё лето в деревню к дедушке. Дед — упрямый старый простак, не очень рад видеть своего внука. Бен знакомится с собакой, которую выгнали из дома, потому что её прежние хозяева, просто не могут позволить себе прокормить и поддержать домашнее животное. С помощью собаки Бен изучает важность дружбы, семьи и ответственности. И это лето станет самым незабываемым в его жизни.

Страна: США, TriCoast Studios
Продолжительность: 01:34:11
Перевод: Профессиональный многоголосый (НТВ+)
Оригинальная аудио-дорожка: Английская
Файл
Кодек: MPEG-4 AVC
Контейнер: MKV
Качество: BDRip 1080p [Исходник: Blu-ray Remux (1080p) от HDClub]
Видео: MPEG-4 AVC, 1920x1080 (16:9), 13.2 Мбит/с, 24 кадр/с, 0.265 bit/pixel
Аудио #1:: Русский, Dolby AC3, 48000 Гц, 448 Кбит/с, 6 каналов (5.1) - MVO [НТВ+]
Аудио #2:: Английский, DTS, 48000 Гц, 1510 Кбит/с, 6 каналов (5.1) - Оригинал
Субтитры: Английские (полные, SDH) SRT
Навигация по главам: Есть (Сохранены оригинальные чаптеры, как на Blu-ray)

MediaInfo

General
Unique ID : 228505054121806623941436072668971707785 (0xABE878FD7942BE9886F0F6055244AD89)
Complete name : Smitty.2012.BDRip.1080p.mkv
Format : Matroska
Format version : Version 4 / Version 2
File size : 9.97 GiB
Duration : 1h 34mn
Overall bit rate : 15.1 Mbps
Movie name : Смитти / Smitty (2012) BDRip (1080p) от ivandubskoj
Encoded date : UTC 2016-08-10 16:41:28
Writing application : mkvmerge v7.9.0 ('Birds') 64bit
Writing library : libebml v1.3.1 + libmatroska v1.4.2
Video
ID : 1
Format : AVC
Format/Info : Advanced Video Codec
Format profile : High@L4.1
Format settings, CABAC : Yes
Format settings, ReFrames : 4 frames
Codec ID : V_MPEG4/ISO/AVC
Duration : 1h 34mn
Bit rate : 13.2 Mbps
Width : 1 920 pixels
Height : 1 080 pixels
Display aspect ratio : 16:9
Frame rate mode : Constant
Frame rate : 24.000 fps
Color space : YUV
Chroma subsampling : 4:2:0
Bit depth : 8 bits
Scan type : Progressive
Bits/(Pixel*Frame) : 0.265
Stream size : 8.48 GiB (85%)
Title : Smitty (2012)
Writing library : x264 core 148 r2597 e86f3a1
Encoding settings : cabac=1 / ref=4 / deblock=1:-3:-3 / analyse=0x3:0x113 / me=umh / subme=11 / psy=1 / psy_rd=1.05:0.05 / mixed_ref=1 / me_range=32 / chroma_me=1 / trellis=2 / 8x8dct=1 / cqm=0 / deadzone=21,11 / fast_pskip=0 / chroma_qp_offset=-3 / threads=6 / lookahead_threads=1 / sliced_threads=0 / nr=0 / decimate=0 / interlaced=0 / bluray_compat=0 / constrained_intra=0 / bframes=9 / b_pyramid=2 / b_adapt=2 / b_bias=0 / direct=3 / weightb=1 / open_gop=0 / weightp=2 / keyint=240 / keyint_min=23 / scenecut=40 / intra_refresh=0 / rc_lookahead=40 / rc=2pass / mbtree=0 / bitrate=13201 / ratetol=1.0 / qcomp=0.60 / qpmin=0 / qpmax=69 / qpstep=4 / cplxblur=20.0 / qblur=0.5 / vbv_maxrate=50000 / vbv_bufsize=62500 / nal_hrd=none / filler=0 / ip_ratio=1.40 / pb_ratio=1.30 / aq=1:1.00
Language : English
Default : Yes
Forced : No
Audio #1
ID : 2
Format : AC-3
Format/Info : Audio Coding 3
Mode extension : CM (complete main)
Format settings, Endianness : Big
Codec ID : A_AC3
Duration : 1h 34mn
Bit rate mode : Constant
Bit rate : 448 Kbps
Channel(s) : 6 channels
Channel positions : Front: L C R, Side: L R, LFE
Sampling rate : 48.0 KHz
Bit depth : 16 bits
Compression mode : Lossy
Stream size : 302 MiB (3%)
Title : MVO [HTB+]
Language : Russian
Default : Yes
Forced : No
Audio #2
ID : 3
Format : DTS
Format/Info : Digital Theater Systems
Mode : 16
Format settings, Endianness : Big
Codec ID : A_DTS
Duration : 1h 34mn
Bit rate mode : Constant
Bit rate : 1 509 Kbps
Channel(s) : 6 channels
Channel positions : Front: L C R, Side: L R, LFE
Sampling rate : 48.0 KHz
Bit depth : 24 bits
Compression mode : Lossy
Stream size : 1 017 MiB (10%)
Title : Original
Language : English
Default : No
Forced : No
Text
ID : 4
Format : UTF-8
Codec ID : S_TEXT/UTF8
Codec ID/Info : UTF-8 Plain Text
Title : Full [SDH]
Language : English
Default : No
Forced : No
Menu
00:00:00.000 : en:Chapter 1
00:09:49.415 : en:Chapter 2
00:16:30.041 : en:Chapter 3
00:25:08.291 : en:Chapter 4
00:33:07.208 : en:Chapter 5
00:41:21.625 : en:Chapter 6
00:45:29.708 : en:Chapter 7
00:54:18.125 : en:Chapter 8
01:03:30.041 : en:Chapter 9
01:12:59.832 : en:Chapter 10
01:22:08.082 : en:Chapter 11
01:30:09.375 : en:Chapter 12

Скриншоты



Автор рипа - ivandubskoj
[Профиль] [ЛС]
Кто просматривает тему:

Показать сообщения:    

Текущее время: Сегодня 16:18

Часовой пояс: GMT



Вы не можете начинать темы
Вы не можете отвечать на сообщения
Вы не можете редактировать свои сообщения
Вы не можете удалять свои сообщения
Вы не можете голосовать в опросах
Вы не можете прикреплять файлы к сообщениям
Вы не можете скачивать файлы