Смешарики (2016) BDRemux 1080p | Лицензия

 
Автор Сообщение

BOSS ®

Пол:

Стаж: 2 года 1 месяц

Сообщений: 3748

Откуда: ODESSA



Награды: 20 (Подробнее)

Mega Seeder 4 (Количество: 1) Top Keeper 1 (Количество: 1) Top Keeper 4 (Количество: 1)
Торрент-статистика

Создавать темы 26-Май-2016 04:34

[Цитировать]

Информация о фильме
Название: Смешарики
Год выхода: 2016
Жанр: Мультфильм, приключения, комедия, полнометражный
Режиссер: Денис Чернов
В ролях: Дмитрий Нагиев, Гарик Харламов, Михаил Черняк, Сергей Мардарь, Антон Виноградов, Владимир Постников, Светлана Письмиченко, Вадим Бочанов
О фильме:
Выдающийся учёный и его команда отправляются в самое сердце диких джунглей, где их ждут опасные приключения, свирепые туземцы и расхитители гробниц, до зубов вооруженные гаджетами.

Страна: Россия
Студия: Продюсерский центр «Рики», Студия компьютерной анимации «Петербург»
Продолжительность: 01:20:17
Файл
Кодек: MPEG-4
Качество: BDRemux 1080p
Видео: 1920x1080, 23.1 Mbit/s, 23.976 fps
Звук: 48 kHz, DTS-HD MA, 5.1, 2234 Kbps |

MI

General
Unique ID : 219046700365917937054336291757866374709 (0xA4CADC25619F82B0857333BF143C5635)
Complete name : F:VideoСмешарики.2016.BDREMUX.1080p.ExKinoRay.mkv
Format : Matroska
Format version : Version 4 / Version 2
File size : 14.2 GiB
Duration : 1h 20mn
Overall bit rate mode : Variable
Overall bit rate : 25.3 Mbps
Movie name : Смешарики.2016.BDREMUX.1080p.ExKinoRay
Encoded date : UTC 2016-05-26 02:43:23
Writing application : mkvmerge v8.3.0 ('Over the Horizon') 64bit
Writing library : libebml v1.3.1 + libmatroska v1.4.2
Video
ID : 1
Format : AVC
Format/Info : Advanced Video Codec
Format profile : High@L4.1
Format settings, CABAC : Yes
Format settings, ReFrames : 4 frames
Codec ID : V_MPEG4/ISO/AVC
Duration : 1h 20mn
Bit rate mode : Variable
Bit rate : 23.1 Mbps
Maximum bit rate : 33.0 Mbps
Width : 1 920 pixels
Height : 1 080 pixels
Display aspect ratio : 16:9
Frame rate mode : Constant
Frame rate : 23.976 (24000/1001) fps
Standard : NTSC
Color space : YUV
Chroma subsampling : 4:2:0
Bit depth : 8 bits
Scan type : Progressive
Bits/(Pixel*Frame) : 0.464
Stream size : 12.9 GiB (91%)
Language : Russian
Default : Yes
Forced : No
Color range : Limited
Color primaries : BT.709
Transfer characteristics : BT.709
Matrix coefficients : BT.709
Audio
ID : 2
Format : DTS
Format/Info : Digital Theater Systems
Format profile : MA / Core
Mode : 16
Format settings, Endianness : Big
Codec ID : A_DTS
Duration : 1h 20mn
Bit rate mode : Variable / Constant
Bit rate : 2 234 Kbps / 1 509 Kbps
Channel(s) : 6 channels
Channel positions : Front: L C R, Side: L R, LFE
Sampling rate : 48.0 KHz
Frame rate : 93.750 fps (512 spf)
Bit depth : 16 bits
Compression mode : Lossless / Lossy
Stream size : 1.25 GiB (9%)
Language : Russian
Default : Yes
Forced : No

Скриншоты

[Профиль] [ЛС]
Показать сообщения:    

Текущее время: Сегодня 23:32

Часовой пояс: GMT



Вы не можете начинать темы
Вы не можете отвечать на сообщения
Вы не можете редактировать свои сообщения
Вы не можете удалять свои сообщения
Вы не можете голосовать в опросах
Вы не можете прикреплять файлы к сообщениям
Вы не можете скачивать файлы