Смешарики. Легенда о золотом драконе / Смешарики. Легенда о золотом драконе (Денис Чернов) [2016 г., мультфильм, приключения, комедия, BDRip, 1080p] [3D: Half OverUnder] + Original (Rus)

 
Автор Сообщение

sokrat ®

Стаж: 1 год 9 месяцев

Сообщений: 63



Награды: Нет

Торрент-статистика

Создавать темы 08-Мар-2017 16:32

[Цитировать]

-Смешарики. Легенда о золотом драконе-- Производство: Россия, Universal Pictures, Фонд Кино, Ruku, Art Pictures Studio, Petersburg Animation Studio
Режиссер: Денис Чернов
Жанр: мультфильм, приключения, комедия
Год выпуска: 2016 г.
Продолжительность: 01:20:15Мировая премьера: 16 апреля 2016
Российская премьера: 16 апреля 2016
Перевод: Не требуется [Оригинал - BD 3D Rus]
Оригинальный аудиопоток: русскийРоли озвучивали: Михаил Черняк (Копатыч, Лосяш, Пин), Сергей Мардарь (Кар-Карыч, Совунья), Антон Виноградов (Крош), Владимир Постников (Ёжик), Светлана Письмиченко (Нюша), Вадим Бочанов (Бараш), Гарик Харламов (вождь племени Хамелеонов), Дмитрий Нагиев (Дизель), Елена Шульман (Лара), Владимир Маслаков (Шустряк)-Описание: Выдающийся учёный и его команда отправляются в самое сердце диких джунглей, где их ждут опасные приключения, свирепые туземцы и расхитители гробниц, до зубов вооруженные гаджетами.-Сэмпл IMDB КиноПоиск
Качество видео: BDRip
Формат 3D: Half OverUnder / Вертикальная анаморфная стереопара
Контейнер: MKV
Стандарт разрешения: 1080p
Видео кодек: MPEG4 AVC
Аудио кодек: AC3
Видео: 1920х1080p / 23,976 fps / 12.5 Mbps
Аудио: Русский / AC3 / 48 KHz / 5.1 ch / 640 Kbps (Оригинал - BD 3D Rus)
Cубтитры: отсутствуют

Трейлер

Рецензия

Легенда о красочном мультфильмеРоссийская анимация в последнее время совершила невероятный прорыв. Новые мультипликационные сериалы — «Маша и медведь», «Тайна Сухаревой башни», «Алиса знает, что делать!» и «Смешарики» — расходятся по всему миру, как горячие пирожки. Последних можно назвать первопроходцами в покорении западной аудитории, ведь именно после «Смешариков» началась новая эра мультипликации в России.Поэтому и неудивительно, что продюсеры проекта пытаются переместить «Смешариков» не только в реальную жизнь в качестве всевозможных игрушек и сувениров, но и на большой экран. Первым «блином» стала картина «Смешарики. Начало», вышедшая в 2011 году и собравшая почти 8,5 миллионов долларов. Для российской анимации — результат впечатляющий.Год 2016 ознаменовался вторым полным метром, под интригующим названием «Смешарики. Легенда о золотом драконе». Исходя из названия, можно представить, что в мультфильме речь будет вестись о сказочном огнедышащем существе. Однако не всё так просто…В этом фильме на первый план выходит Бараш — барановидное существо, которое всем своим видом показывает, что толку от него — никакого. Как бы он не был предан друзьям, Барашу кажется, что он — белая ворона среди остальной команды. В один прекрасный миг Бараш пытается изменить свою жизнь, воспользовавшись новым изобретением, которое может передавать умения от одного смешарика к другому. Правда, Бараш не был бы Барашем, если бы у него всё получилось с первого раза. Благодаря своему умению испортить всё, что только можно, сферическое существо превращается в мелкую гусеницу, и с этого момента у друзей начинаются головокружительные приключения. Что немаловажно — с изрядной долей юмора.Главная загадка всего мультфильма — кто же на самом деле является Золотым Драконом и почему ему все так поклоняются? Версии меняются молниеносно, то запутывая зрителя, то подводя к очевидному ответу. Смешарики переносятся из своего мирка в непроходимые джунгли и на островок почитания Золотого Дракона, попутно показывая зрителям всю невероятную красоту тропического мира и природы в целом.В связи с этим нельзя не сказать, что этот мультфильм — настоящее пиршество для глаз. Настолько красочного мультфильма в российской киноиндустрии я не припомню! Зелень пальмовых листьев контрастирует с голубой прозрачной водой, красное небо на фоне вулкана смотрится ещё более зловеще, палитра цветов самих Смешариков не поддаётся комментариям вообще. Особо удался художникам бумажный фейерверк, который запускали верующие в Золотого Дракона жители. Феерия красок — это, наверное, самое яркое впечатление, которое сможет зритель унести с собой из зала. За исключением меломанов…Ценители музыки сразу могут несколько известных композиций, прозвучавших в фильме — в частности, небезызвестную «Sex Bomb». СтОило ли песню с таким названием выпускать в детский мультфильм — каждый подумает про себя. Но основной мелодией я всё-таки считаю композицию, исполненную Смешариками на острове, и ставшую центральной мелодией для заключительных титров. Дети под неё начинали танцевать ещё в самом зале. В общем, с выбором основной песни саунд-продюсеры не прогадали.На мой взгляд, не прогадают с просмотром этого творения и зрители, которые с 17 марта смогут посетить мультфильм во всех кинотеатрах страны. Лично я, будучи мало знакомым с героями «Смешариков», остался от проекта в огромном восторге! Уверен, что на этом приключения сферических животных не закончатся, и в ближайшем будущем нас ожидает ещё немало таких великолепнейших мультфильмов.10 из 10

Media Info

Общее
Уникальный идентификатор : 202779765721296449154095409291980978221 (0x988DF658C22D70CAAC0743B7D594382D)
Полное имя : C:\Смешарики. Легенда о золотом драконе (2016) 3D\Smeshariki.Legenda O Zolotom Drakone.2016.3D-halfOU.[pirat.ca].mkv
Формат : Matroska
Версия формата : Version 2
Размер файла : 7,51 Гбайт
Продолжительность : 1 ч. 20 м.
Общий поток : 13,4 Мбит/сек
Название фильма : Смешарики. Легенда о золотом драконе (2016) в 3D
Дата кодирования : UTC 2017-03-07 08:22:31
Программа кодирования : mkvmerge v5.3.0 ('I could have danced') built on Feb 9 2012 10:38:07
Библиотека кодирования : libebml v1.2.3 + libmatroska v1.3.0Видео
Идентификатор : 1
Формат : AVC
Формат/Информация : Advanced Video Codec
Профиль формата : [email protected]/* */
Параметр CABAC формата : Да
Параметр ReFrames формата : 4 кадра
Идентификатор кодека : V_MPEG4/ISO/AVC
Продолжительность : 1 ч. 20 м.
Битрейт : 12,5 Мбит/сек
Ширина : 1920 пикселей
Высота : 1080 пикселей
Соотношение сторон : 16:9
Режим частоты кадров : Постоянный
Частота кадров : 23,976 (24000/1001) кадра/сек
Цветовое пространство : YUV
Субдискретизация насыщенности : 4:2:0
Битовая глубина : 8 бит
Тип развёртки : Прогрессивная
Бит/(Пиксели*Кадры) : 0.251
Размер потока : 7,01 Гбайт (93%)
Библиотека кодирования : x264 core 146 r2538 121396c
Настройки программы : cabac=1 / ref=4 / deblock=1:-3:-3 / analyse=0x3:0x113 / me=umh / subme=10 / psy=1 / psy_rd=1.00:0.00 / mixed_ref=1 / me_range=32 / chroma_me=1 / trellis=2 / 8x8dct=1 / cqm=0 / deadzone=21,11 / fast_pskip=1 / chroma_qp_offset=-2 / threads=12 / lookahead_threads=3 / sliced_threads=0 / nr=0 / decimate=1 / interlaced=0 / bluray_compat=0 / constrained_intra=0 / bframes=12 / b_pyramid=2 / b_adapt=2 / b_bias=0 / direct=3 / weightb=1 / open_gop=0 / weightp=2 / keyint=250 / keyint_min=23 / scenecut=40 / intra_refresh=0 / rc_lookahead=60 / rc=crf / mbtree=1 / crf=15.0 / qcomp=0.70 / qpmin=0 / qpmax=69 / qpstep=4 / vbv_maxrate=40000 / vbv_bufsize=30000 / crf_max=0.0 / nal_hrd=none / filler=0 / frame-packing=4 / ip_ratio=1.40 / aq=1:0.70
Язык : Russian
Default : Да
Forced : НетАудио
Идентификатор : 2
Формат : AC-3
Формат/Информация : Audio Coding 3
Расширение режима : CM (complete main)
Параметр Endianness формата : Big
Идентификатор кодека : A_AC3
Продолжительность : 1 ч. 20 м.
Вид битрейта : Постоянный
Битрейт : 640 Кбит/сек
Каналы : 6 каналов
Расположение каналов : Front: L C R, Side: L R, LFE
Частота : 48,0 КГц
Частота кадров : 31,250 кадров/сек (1536 spf)
Метод сжатия : С потерями
Размер потока : 367 Мбайт (5%)
Заголовок : Оригинал - BD 3D Rus
Язык : Russian
Default : Да
Forced : НетМеню
00:00:00.000 : :1
00:11:51.961 : :2
00:20:18.634 : :3
00:30:19.568 : :4
00:39:01.839 : :5
00:50:24.021 : :6
00:59:05.834 : :7
01:09:52.480 : :8

Скриншоты

[Профиль] [ЛС]
Показать сообщения:    

Текущее время: Сегодня 17:23

Часовой пояс: GMT



Вы не можете начинать темы
Вы не можете отвечать на сообщения
Вы не можете редактировать свои сообщения
Вы не можете удалять свои сообщения
Вы не можете голосовать в опросах
Вы не можете прикреплять файлы к сообщениям
Вы не можете скачивать файлы