Смешарики. Легенда о золотом драконе (2016) WEB-DLRip-AVC | iTunes

 
Автор Сообщение

достали все ®

Пол:

Стаж: 1 год 8 месяцев

Сообщений: 6600



Награды: 12 (Подробнее)

Top Releaser 2 (Количество: 1) Mega Releaser 3 (Количество: 1) Mega Seeder 4 (Количество: 1)
Торрент-статистика

Создавать темы 22-Апр-2016 09:12

[Цитировать]

Смешарики. Легенда о золотом драконе
«Предпоследняя надежда человечества»

Страна: Россия
Жанр: мультфильм, приключения, комедия
Год выпуска: 2016
Продолжительность: 01:20:17
Перевод: Не требуется (русский)
Cубтитры: нет
Режиссер: Денис Чернов
В ролях: Михаил Черняк, Сергей Мардарь, Антон Виноградов, Владимир Постников, Светлана Письмиченко, Вадим Бочанов, Гарик Харламов, Дмитрий Нагиев, Елена Шульман, Владимир Маслаков
Описание:
Выдающийся учёный и его команда отправляются в самое сердце диких джунглей, где их ждут опасные приключения, свирепые туземцы и расхитители гробниц, до зубов вооруженные гаджетами.

Релиз:
Автор рипа: Stalker oK
Сэмпл
Качество видео: WEB-DLRip-AVC [BLUEBIRD / WEB-DL / 1080p]
Формат видео: MKV
Видео кодек: AVC
Аудио кодек: AC3
Видео: 2215 Кбит/сек, 1100x458 (2.40:1), 23,976 кадр/сек, AVC
Аудио: русский, 384 Кбит/сек, 48 КГц, 16 бит, 5.1, AC3 [iTunes]
Навигация по главам: есть

MediaInfo

Общее
Уникальный идентификатор : 202950821602217395577325064467420869185 (0x98AEE80D82F66D43B8F966463FFCF241)
Полное имя : M:1RipsСмешарики. Легенда о золотом драконеSmeshariki.Legenda.o.zolotom.drakone.2016.WEB-DLRip-AVC.1.45Gb.stalkerok.new-team.mkv
Формат : Matroska
Версия формата : Version 4 / Version 2
Размер файла : 1,46 Гбайт
Продолжительность : 1 ч. 20 м.
Общий поток : 2600 Кбит/сек
Название фильма : Смешарики. Легенда о золотом драконе (2016) (New-Team) (Rip by Stalker oK)
Дата кодирования : UTC 2016-04-21 20:49:22
Программа кодирования : mkvmerge v8.6.1 ('Flying') 64bit
Библиотека кодирования : libebml v1.3.3 + libmatroska v1.4.4
Видео
Идентификатор : 1
Формат : AVC
Формат/Информация : Advanced Video Codec
Профиль формата : High@L4.1
Параметр CABAC формата : Да
Параметр ReFrames формата : 13 кадров
Идентификатор кодека : V_MPEG4/ISO/AVC
Продолжительность : 1 ч. 20 м.
Битрейт : 2215 Кбит/сек
Ширина : 1100 пикселей
Высота : 458 пикселей
Соотношение сторон : 2,40:1
Режим частоты кадров : Постоянный
Частота кадров : 23,976 (24000/1001) кадра/сек
Цветовое пространство : YUV
Субдискретизация насыщенности : 4:2:0
Битовая глубина : 8 бит
Тип развёртки : Прогрессивная
Бит/(Пиксели*Кадры) : 0.183
Размер потока : 1,24 Гбайт (85%)
Заголовок : Смешарики. Легенда о золотом драконе (2016) (New-Team) (Rip by Stalker oK)
Библиотека кодирования : x264 core 148 r2665kMod a01e339
Настройки программы : cabac=1 / ref=13 / deblock=1:-3:-3 / analyse=0x3:0x133 / me=umh / subme=11 / psy=1 / fade_compensate=0.00 / psy_rd=1.00:0.02 / mixed_ref=1 / me_range=48 / chroma_me=1 / trellis=2 / 8x8dct=1 / cqm=0 / deadzone=21,11 / fast_pskip=0 / chroma_qp_offset=-3 / threads=12 / lookahead_threads=3 / sliced_threads=0 / nr=0 / decimate=0 / interlaced=0 / bluray_compat=0 / constrained_intra=0 / fgo=0 / bframes=14 / b_pyramid=2 / b_adapt=2 / b_bias=0 / direct=3 / weightb=1 / open_gop=0 / weightp=2 / keyint=240 / keyint_min=23 / scenecut=40 / intra_refresh=0 / rc_lookahead=60 / rc=2pass / mbtree=0 / bitrate=2215 / ratetol=1.0 / qcomp=0.70 / qpmin=0 / qpmax=69 / qpstep=4 / cplxblur=20.0 / qblur=0.5 / vbv_maxrate=50000 / vbv_bufsize=62500 / nal_hrd=none / filler=0 / ip_ratio=1.40 / pb_ratio=1.30 / aq=3:0.85
Default : Да
Forced : Нет
Аудио
Идентификатор : 2
Формат : AC-3
Формат/Информация : Audio Coding 3
Расширение режима : CM (complete main)
Параметр Endianness формата : Big
Идентификатор кодека : A_AC3
Продолжительность : 1 ч. 20 м.
Вид битрейта : Постоянный
Битрейт : 384 Кбит/сек
Каналы : 6 каналов
Расположение каналов : Front: L C R, Side: L R, LFE
Частота : 48,0 КГц
Частота кадров : 31,250 кадров/сек (1536 spf)
Метод сжатия : С потерями
Размер потока : 221 Мбайт (15%)
Заголовок : DD 5.1 @ 384 kbps - iTunes
Язык : Russian
Default : Да
Forced : Нет
Меню
00:00:00.000 : en:1
00:02:26.000 : en:2
00:12:38.000 : en:3
00:20:06.000 : en:4
00:30:21.000 : en:5
00:41:12.000 : en:6
00:52:53.000 : en:7
01:01:34.000 : en:8
01:14:38.000 : en:9

[Профиль] [ЛС]
Показать сообщения:    

Текущее время: Сегодня 13:52

Часовой пояс: GMT



Вы не можете начинать темы
Вы не можете отвечать на сообщения
Вы не можете редактировать свои сообщения
Вы не можете удалять свои сообщения
Вы не можете голосовать в опросах
Вы не можете прикреплять файлы к сообщениям
Вы не можете скачивать файлы