Смешанные / Blended (Фрэнк Корачи / Frank Coraci) [2014, США, Комедия, семейный, BDRip] Dub

 
Автор Сообщение

painkiller ®

Стаж: 2 года 3 месяца

Сообщений: 582



Награды: Нет

Торрент-статистика

Создавать темы 16-Авг-2014 01:28

[Цитировать]

Смешанные / Blended- Год выпуска: 2014
Выпущено: США / Warner Bros. Pictures
Жанр: комедия, семейный
Продолжительность: 01:57:13
Перевод: Профессиональный (полное дублирование)
Cубтитры: нет-Режиссер:
Фрэнк Корачи / Frank Coraci-В ролях:
Адам Сэндлер (Jim), Дрю Бэрримор (Lauren), Белла Торн (Hilary), Эмма Фурманн (Espn), Аливия Элин Линд (Lou), Брэкстон Бэкхам (Brendan), Кайл Ред Силверштейн (Tyler), Кевин Нилон (Eddy), Зак Генри (Jake), Венди МакЛендон-Кови (Jen), Терри Крюс (Nickens), Шакил О’Нил (Doug)-Описание:
После катастрофического свидания «вслепую» родители-одиночки Лорен и Джим согласны только в одном: они не хотят больше видеть друг друга никогда! Полагая, что их знакомство окончено, обе семьи пользуются удобным случаем и отправляются в идеальный отпуск с детьми. А оказываются в одних и тех же гостиничных апартаментах на роскошном южноафриканском курорте аж на целую неделю.-Релиз групп | | IMDB | КиноПоиск | Сэмпл |-Качество: BDRip [BDRemux | 1080p | HDCLUB]
Формат: AVI
Видео: 720x384 (1.88:1), 23.976 fps, XviD build 73 ~1389 kbps avg, 0.21 bit/pixel
Аудио: 48 kHz, AC3 Dolby Digital, 3/2 (L,C,R,l,r) + LFE ch, ~384.00 kbps avg - iTunes Russia
-

Скриншоты

MediaInfo

General
Complete name                            : D:\Smeshannye_2014_BDRip_iTunes_by_Dalemake.avi
Format                                   : AVI
Format/Info                              : Audio Video Interleave
File size                                : 1.46 GiB
Duration                                 : 1h 57mn
Overall bit rate                         : 1 783 Kbps
Writing application                      : VirtualDubMod 1.5.10.3 | www.virtualdub-fr.org || (build 2550/release)
Writing library                          : VirtualDubMod build 2550/release
Video
ID                                       : 0
Format                                   : MPEG-4 Visual
Format profile                           : Advanced Simple@L5
Format settings, BVOP                    : 1
Format settings, QPel                    : No
Format settings, GMC                     : No warppoints
Format settings, Matrix                  : Custom
Codec ID                                 : XVID
Codec ID/Hint                            : XviD
Duration                                 : 1h 57mn
Bit rate                                 : 1 389 Kbps
Width                                    : 720 pixels
Height                                   : 384 pixels
Display aspect ratio                     : 1.85:1
Frame rate                               : 23.976 fps
Color space                              : YUV
Chroma subsampling                       : 4:2:0
Bit depth                                : 8 bits
Scan type                                : Progressive
Compression mode                         : Lossy
Bits/(Pixel*Frame)                       : 0.210
Stream size                              : 1.14 GiB (78%)
Writing library                          : XviD 73
Audio
ID                                       : 1
Format                                   : AC-3
Format/Info                              : Audio Coding 3
Mode extension                           : CM (complete main)
Format settings, Endianness              : Big
Codec ID                                 : 2000
Duration                                 : 1h 57mn
Bit rate mode                            : Constant
Bit rate                                 : 384 Kbps
Channel(s)                               : 6 channels
Channel positions                        : Front: L C R, Side: L R, LFE
Sampling rate                            : 48.0 KHz
Bit depth                                : 16 bits
Compression mode                         : Lossy
Stream size                              : 322 MiB (22%)
Alignment                                : Split accross interleaves
Interleave, duration                     : 42 ms (1.00 video frame)
Interleave, preload duration             : 500 ms
-
[Профиль] [ЛС]
Показать сообщения:    

Текущее время: Сегодня 18:27

Часовой пояс: GMT



Вы не можете начинать темы
Вы не можете отвечать на сообщения
Вы не можете редактировать свои сообщения
Вы не можете удалять свои сообщения
Вы не можете голосовать в опросах
Вы не можете прикреплять файлы к сообщениям
Вы не можете скачивать файлы