Смешанные / Blended (2014) WEB-DL [720p] ATV

 
Автор Сообщение

sergej644 ®

Пол:

Стаж: 4 года 11 месяцев

Сообщений: 6035

Откуда: Soviet Union



Награды: Нет

Торрент-статистика

Создавать темы 14-Авг-2014 22:42

[Цитировать]

-Смешанные / Blended (2014) WEB-DL [720p] ATV
-
- Год выпуска: 2014
Производство: США
Жанр: Комедия, семейный
Продолжительность: 01:57:11
Перевод: Дублированный (Line)
Оригинальная аудиодорожка: Есть
Режиссер: Фрэнк Корачи
Сценарий: Иван Менчелл, Клер Сера
Продюсер: Джек Джиррапуто, Майк Карц, Адам Сэндлер
Оператор: Хулио Макат
Композитор: Руперт Грегсон-Уильямс
Художник: Перри Энделин Блейк, Алан Ау, Эндрю Орландо
Монтаж: Том Костэйн
Актеры: Адам Сэндлер, Дрю Бэрримор, Белла Торн, Эмма Фурманн, Аливия Элин Линд, Брэкстон Бэкхам, Кайл Ред Силверштейн, Кевин Нилон, Зак Генри, Венди МакЛендон-Кови
Бюджет: $40 000 000
Сборы в США: $46 129 333
Сборы в мире: + $75 200 000 = $121 329 333
Сборы в России: $5 514 053
Мировая премьера: 22 мая 2014
Премьера (РФ): 19 июня 2014, «Каро-Премьер»
Релиз на DVD: 4 сентября 2014, «CP Дистрибуция»
Релиз на Blu-Ray: 4 сентября 2014, «CP Дистрибуция»

Описание: После катастрофического свидания «вслепую»  родители-одиночки Лорен и Джим согласны только в одном: они не хотят больше видеть друг друга никогда! Полагая, что их знакомство окончено, обе семьи пользуются удобным случаем и отправляются в идеальный отпуск с детьми. А оказываются в одних и тех же гостиничных апартаментах на роскошном южноафриканском курорте аж на целую неделю.-Качество: WEB-DL 720p
Тип: HD (720p)
Контейнер: M4V
Видео: H.264, 1280x690, 1.85:1, 4 103 Kbps, 23.976 fps
Аудио 1: Русский/ Дублированный (Line) , AAC / 2.0 / 109 Kbps / 48.0 KHz
Аудио 2: Русский/ Дублированный ((Line)) , AC-3 / 2.0 / 384 Kbps / 48.0 KHz
Аудио 3: Английский/Оригинальная дорожка , AAC / 2.0 / 144 Kbps / 48.0 KHz
Аудио 4: Английский/Оригинальная дорожка , AC-3 / 5.1 / 384 Kbps / 48.0 KHz
Язык субтитров:
Вид субтитров: Вшитые (полные, отключаемые)-

iTunes Meta Tags

Media Type: Movie HD 720p
Sort Name: Blended (2014)
XID: Apple:vendor_id:2014-760565
Content ID: 878366011
Copyright: © 2014 Warner Bros. Entertainment Inc.
ScreenWriters: Иван Менчелл, Клер Сера
Producers: Джек Джиррапуто, Майк Карц, Адам Сэндлер
Director: Фрэнк Корачи
Cast: Адам Сэндлер, Дрю Бэрримор, Кевин Нилон, Терри Крюс, Венди МакЛендон-Кови, Эмма Фурманн, Белла Торн, Брэкстон Бэкхам, Аливия Элин Линд, Джоэл МакХэйл
Rating: PG-13
Long Description: После неудачного свидания вслепую мужчина и женщина оказываются застрявшими вместе на семейном курорте...
Description: После неудачного свидания вслепую мужчина и женщина оказываются застрявшими вместе на семейном курорте...
Release Date: 2014-05-22T08:00:00Z
Genre: Comedy
Artist: Frank Coraci
Name: Blended (2014)

MediaInfo

General
Complete name                            : C:\\Handbrake\\Blended.WEB-DL.720p.m4v
Format                                   : MPEG-4
Codec ID                                 : M4V
File size                                : 4.21 GiB
Duration                                 : 1h 57mn
Overall bit rate mode                    : Variable
Overall bit rate                         : 5 137 Kbps
Season                                   : 1
Movie name                               : Blended (2014)
Part                                     : 0
Part/Position                            : 1
Track name/Position                      : 1
Performer                                : Frank Coraci
Genre                                    : Comedy
ContentType                              : Short Film
Description                              : После неудачного свидания вслепую мужчина и женщина оказываются застрявшими вместе на семейном курорте...
Recorded date                            : UTC 2014-05-22 08:00:00
Encoded date                             : UTC 2014-08-14 21:05:27
Tagged date                              : UTC 2014-08-14 21:14:00
Writing application                      : MkvToMp4 [www.mkvtomp4.ru] version: 0.224 (x64)
Copyright                                : © 2014 Warner Bros. Entertainment Inc.
Service name                             : AOL
Cover                                    : Yes
Title/Sort                               : Blended (2014)
LongDescription                          : После неудачного свидания вслепую мужчина и женщина оказываются застрявшими вместе на семейном курорте...
HDVideo                                  : Yes
AppleStoreAccountType                    : AOL
AppleStoreCountry                        : Unknown Country
AppleStoreCatalogID                      : 878366011
Vendor                                   : Apple:vendor_id:2014-760565
ContentRating                            : mpaa|PG-13|300|
iTunMOVI                                 :  /  /  /   /   cast /    /     /     name /     Адам Сэндлер /     /     /     name /     Дрю Бэрримор /     /     /     name /     Кевин Нилон /     /     /     name /     Терри Крюс /     /     /     name /     Венди МакЛендон-Кови /     /     /     name /     Эмма Фурманн /     /     /     name /     Белла Торн /     /     /     name /     Брэкстон Бэкхам /     /     /     name /     Аливия Элин Линд /     /     /     name /     Джоэл МакХэйл /     /    /   directors /    /     /     name /     Фрэнк Корачи /     /    /   producers /    /     /     name /     Джек Джиррапуто /     /     /     name /     Майк Карц /     /     /     name /     Адам Сэндлер /     /    /   screenwriters /    /     /     name /     Иван Менчелл /     /     /     name /     Клер Сера /     /    /   /
Video
ID                                       : 1
Format                                   : AVC
Format/Info                              : Advanced Video Codec
Format profile                           : [url=mailto:High@L3.1]High@L3.1[/url]
Format settings, CABAC                   : No
Format settings, ReFrames                : 2 frames
Format settings, GOP                     : N=1
Codec ID                                 : avc1
Codec ID/Info                            : Advanced Video Coding
Duration                                 : 1h 57mn
Bit rate                                 : 4 103 Kbps
Maximum bit rate                         : 13.8 Mbps
Width                                    : 1 280 pixels
Height                                   : 690 pixels
Display aspect ratio                     : 1.85:1
Frame rate mode                          : Constant
Frame rate                               : 23.976 fps
Color space                              : YUV
Chroma subsampling                       : 4:2:0
Bit depth                                : 8 bits
Scan type                                : Progressive
Bits/(Pixel*Frame)                       : 0.194
Stream size                              : 3.36 GiB (80%)
Language                                 : English
Encoded date                             : UTC 2014-08-14 21:05:27
Tagged date                              : UTC 2014-08-14 21:06:55
Color primaries                          : BT.709
Transfer characteristics                 : BT.709
Matrix coefficients                      : BT.709
Audio #1
ID                                       : 2
Format                                   : AAC
Format/Info                              : Advanced Audio Codec
Format profile                           : LC
Codec ID                                 : 40
Duration                                 : 1h 57mn
Bit rate mode                            : Variable
Bit rate                                 : 109 Kbps
Maximum bit rate                         : 177 Kbps
Channel(s)                               : 2 channels
Channel positions                        : Front: L R
Sampling rate                            : 48.0 KHz
Compression mode                         : Lossy
Stream size                              : 91.3 MiB (2%)
Language                                 : Russian
Encoded date                             : UTC 2014-08-14 20:59:13
Tagged date                              : UTC 2014-08-14 21:06:55
Audio #2
ID                                       : 3
Format                                   : AC-3
Format/Info                              : Audio Coding 3
Mode extension                           : CM (complete main)
Format settings, Endianness              : Big
Codec ID                                 : ac-3
Duration                                 : 1h 57mn
Bit rate mode                            : Constant
Bit rate                                 : 384 Kbps
Channel(s)                               : 2 channels
Channel positions                        : Front: L R
Sampling rate                            : 48.0 KHz
Bit depth                                : 16 bits
Compression mode                         : Lossy
Stream size                              : 322 MiB (7%)
Language                                 : Russian
Encoded date                             : UTC 2014-08-14 21:06:45
Tagged date                              : UTC 2014-08-14 21:06:55
Audio #3
ID                                       : 4
Format                                   : AAC
Format/Info                              : Advanced Audio Codec
Format profile                           : LC
Codec ID                                 : 40
Duration                                 : 1h 57mn
Bit rate mode                            : Variable
Bit rate                                 : 144 Kbps
Maximum bit rate                         : 221 Kbps
Channel(s)                               : 2 channels
Channel positions                        : Front: L R
Sampling rate                            : 48.0 KHz
Compression mode                         : Lossy
Stream size                              : 121 MiB (3%)
Language                                 : English
Encoded date                             : UTC 2014-08-14 21:03:13
Tagged date                              : UTC 2014-08-14 21:06:55
Audio #4
ID                                       : 5
Format                                   : AC-3
Format/Info                              : Audio Coding 3
Mode extension                           : CM (complete main)
Format settings, Endianness              : Big
Codec ID                                 : ac-3
Duration                                 : 1h 57mn
Bit rate mode                            : Constant
Bit rate                                 : 384 Kbps
Channel(s)                               : 6 channels
Channel positions                        : Front: L C R, Side: L R, LFE
Sampling rate                            : 48.0 KHz
Bit depth                                : 16 bits
Compression mode                         : Lossy
Stream size                              : 322 MiB (7%)
Language                                 : English
Encoded date                             : UTC 2014-08-14 21:06:51
Tagged date                              : UTC 2014-08-14 21:06:55
Menu
ID                                       : 6
Codec ID                                 : text
Duration                                 : 1h 57mn
Encoded date                             : UTC 2014-08-14 21:13:59
Tagged date                              : UTC 2014-08-14 21:14:00
Bit rate mode                            : VBR
Скриншоты: -

Релиз подготовлен для просмотра на Apple TV, iPad, iPhone, iPod Touch.
Для просмотра данного релиза на компьютере с ОС Windows рекомендуется использовать VLC media player
[Профиль] [ЛС]
Кто просматривает тему:

Форум Тема Автор Размер
Фильмы (HD Rips | 720p, 1080p) Смешанные / Blended (2014) BDRip 720p от HQ-ViDEO | Лицензия sergej644 5.37 GB
Фильмы 2014 года Смешанные / Blended (Фрэнк Корачи / Frank Coraci) (2014 г., США, комедия, семейный, WEBRip] Dub (Line) bot 1.36 GB
Фильмы 2014 года Смешанные / Blended (Фрэнк Корачи / Frank Coraci) [2014, США, комедия, HDRip] Dub (iTunes) painkiller 2.05 GB
Фильмы 2014 года Смешанные / Blended (Фрэнк Корачи / Frank Coraci) [2014, США, Комедия, семейный, BDRip] Dub painkiller 1.46 GB
Бокс, Бои без правил, К1 Смешанные единоборства. FIGHT NIGHTS GLOBAL 46 [29.04] (2016) HDTV 1080i достали все 11.64 GB
Бокс, Бои без правил, К1 Смешанные единоборства. Fight Nights Global 50. Санкт-Петербург. Фёдор Емельяненко - Фабио Мальдонадо [17.06] (2016) WEBRip-AVC достали все 381 MB
Бокс, Бои без правил, К1 Смешанные единоборства. Grand-Prix Akhmat 2016. Основной кард [04.10] (2016) HDTVRip 720p | 50 fps Russian Mafia 4.17 GB
Бокс, Бои без правил, К1 Смешанные единоборства. M-1 Challenge 61: Battle of Narts [20.09] (2015) HDTVRip Russian Mafia 1.61 GB
Показать сообщения:    

Текущее время: Сегодня 09:57

Часовой пояс: GMT



Вы не можете начинать темы
Вы не можете отвечать на сообщения
Вы не можете редактировать свои сообщения
Вы не можете удалять свои сообщения
Вы не можете голосовать в опросах
Вы не можете прикреплять файлы к сообщениям
Вы не можете скачивать файлы