Смех и горе у Бела моря (Леонид Носырев) [1988, мультфильм, драма, комедия, DVB]

 
Автор Сообщение

reversefile ®

Пол:

Стаж: 4 года 5 месяцев

Сообщений: 842

Откуда: ReverseFile.org



Награды: Нет

Торрент-статистика

Создавать темы 21-Июл-2014 18:12

[Цитировать]

Смех и горе у Бела моря-Страна: СССР
Жанр: мультфильм, драма, комедия
Продолжительность: 00:58:50
Год выпуска: 1988
Русские субтитры: нет-Режиссёр: Леонид Носырев
Роли озвучивали: Борис Новиков, Татьяна Васильева, Клара Румянова, Евгений Леонов, Анатолий Баранцев, Мария Виноградова, Кира Смирнова, Юрий Волынцев.-Описание: Мультипликационный фильм по произведениям Бориса шергина и Степана Писахова («Не любо — не слушай», «Волшебное кольцо», «Архангельские новеллы», «Поморская быль» и др.).
В фильм вошли:
1. Вечны льдины
2. Про медведя
3. Морожены песни
4. Волшебное кольцо
5. Перепилиха
6. Апельсин
7. Иван и Адриан- -Качество: DVB
Формат: TS
Видео: 720x576 (4:3), 25.000 fps, AVC, ~3558 Kbps, 0.343 bits/pixel
Аудио: 48.0 KHz, MPEG-1 Audio layer 2, 2 ch, 256 Kbps
Субтитры: отсутствуют

Подробные технические данные

GeneralID : 1 (0x1)Complete name : Смех и горе у Бела моря.1988.CTC 0.tsFormat : MPEG-TSFile size : 1.65 GiBDuration : 58mn 50sOverall bit rate mode : VariableOverall bit rate : 4 015 Kbps
VideoID : 1801 (0x709)Menu ID : 1 (0x1)Format : AVCFormat/Info : Advanced Video CodecFormat profile : High@L3.0Format settings, CABAC : YesFormat settings, ReFrames : 3 framesFormat settings, GOP : M=4, N=28Codec ID : 27Duration : 58mn 50sBit rate : 3 558 KbpsWidth : 720 pixelsHeight : 576 pixelsDisplay aspect ratio : 4:3Frame rate : 25.000 fpsStandard : ComponentColor space : YUVChroma subsampling : 4:2:0Bit depth : 8 bitsScan type : InterlacedScan order : Top Field FirstBits/(Pixel*Frame) : 0.343Stream size : 1.46 GiB (89%)Color primaries : BT.601 PALTransfer characteristics : BT.470 System B, BT.470 System GMatrix coefficients : BT.601
AudioID : 2801 (0xAF1)Menu ID : 1 (0x1)Format : MPEG AudioFormat version : Version 1Format profile : Layer 2Codec ID : 3Duration : 58mn 49sBit rate mode : ConstantBit rate : 256 KbpsChannel(s) : 2 channelsSampling rate : 48.0 KHzCompression mode : LossyStream size : 108 MiB (6%)
Сравнение с DVD">

Скриншоты Сравнение с DVD


Сравнение с DVD (Крупный план) http://torrentfilm.net/forum/viewtopic.php?t=1224307
http://screenshotcomparison.com/comparison/11031
Сильно отличается цветопередача.
[Профиль] [ЛС]
Кто просматривает тему:

Показать сообщения:    

Текущее время: Сегодня 00:33

Часовой пояс: GMT



Вы не можете начинать темы
Вы не можете отвечать на сообщения
Вы не можете редактировать свои сообщения
Вы не можете удалять свои сообщения
Вы не можете голосовать в опросах
Вы не можете прикреплять файлы к сообщениям
Вы не можете скачивать файлы