Смерть чиновника (Александр Викен) [1988, Рисованный мультфильм, SATRip]

 
Автор Сообщение

TorrentFilm ®

Пол:

Стаж: 2 года

Сообщений: 7741



Награды: Нет

Торрент-статистика

Создавать темы 03-Янв-2016 00:05

[Цитировать]

Смерть чиновника
Страна: СССР
Жанр: Рисованный мультфильм
Продолжительность: 00:09:46
Год выпуска: 1988
Русские субтитры: нет
Режиссёр: Александр Викен
Описание: Мультипликационный фильм для взрослых по одноименному рассказу А. П. Чехова. Однажды вечером экзекутор Иван Дмитриевич Червяков пошёл в театр. Он был на вершине блаженства. Но вдруг он чихнул на статского генерала Бризжалова. После этого случая Червяков ходил много раз извиняться перед генералом, не понимая, что тот давно уже простил его. В конце концов генерал, думая, что тот смеётся над ним, выгнал Червякова.
Доп. информация: "Киевнаучфильм"
Качество: SATRip
Формат: AVI
Видео: 512x384 (1.33:1), 25 fps, XviD MPEG-4 ~1698 kbps avg, 0.34 bit/pixel
Аудио: 48 kHz, MPEG Layer 3, 1 ch, ~96.00 kbps avg
Субтитры: нет

Подробные технические данные

Format : AVIFormat/Info : Audio Video InterleaveFile size : 126 MiBDuration : 9mn 46sOverall bit rate : 1 804 Kbps
VideoID : 0Format : MPEG-4 VisualFormat profile : Advanced Simple@L5Format settings, BVOP : 1Format settings, QPel : NoFormat settings, GMC : No warppointsFormat settings, Matrix : Default (MPEG)Codec ID : XVIDCodec ID/Hint : XviDDuration : 9mn 46sBit rate : 1 699 KbpsWidth : 512 pixelsHeight : 384 pixelsDisplay aspect ratio : 4:3Frame rate : 25.000 fpsColor space : YUVChroma subsampling : 4:2:0Bit depth : 8 bitsScan type : ProgressiveCompression mode : LossyBits/(Pixel*Frame) : 0.346Stream size : 119 MiB (94%)Writing library : DivX 1393
AudioID : 1Format : MPEG AudioFormat version : Version 1Format profile : Layer 3Codec ID : 55Codec ID/Hint : MP3Duration : 9mn 45sBit rate mode : ConstantBit rate : 96.0 KbpsChannel(s) : 1 channelSampling rate : 48.0 KHzCompression mode : LossyStream size : 6.71 MiB (5%)Alignment : Split accross interleavesInterleave, duration : 40 ms (1.00 video frame)Interleave, preload duration : 500 ms

Скриншоты

[Профиль] [ЛС]
Кто просматривает тему:

Форум Тема Автор Размер
Фильмы 2014 года 2047 – Угроза смерти / 2047: Sights of Death (2014) HDRip | L1 BOSS 703 MB
Фильмы 2014 года 2047 – Угроза смерти / 2047: Sights of Death (Алессандро Капоне) [2014, фантастика, боевик, триллер] HDRip | L1 BOSS 1.45 GB
Фильмы 2010 года 22 пули: Бессмертный / 22 Bullets: L'immortel (Ришар Берри) [2010 г., Боевик, драма, криминал, HDRip] DUB BOSS 1.45 GB
Фильмы (HD Rips | 720p, 1080p) 31: Праздник смерти / 31 (2016) WEB-DL 1080p | iTunes Russian Mafia 3.4 GB
Фильмы 2016 года 31: Праздник смерти / 31 (2016) WEB-DLRip | iTunes Russian Mafia 1.37 GB
BBC BBC: Horizon. В поисках бессмертия / Horizon. The Immortalist (Tristan Quinn) [2016 г., Документальный, научно-познавательный, HDTVRip-AVC 720p] skorpionN 1.52 GB
BBC BBC: Бессмертный Египет с Джоанн Флетчер (История Египта) / Immortal Egypt with Joann Fletcher (The Story of Egypt) [серии 1-4 из 4] (Ian A. Hunt) [2015 г., Документальный, история, исследования,... skorpionN 7.22 GB
История, биографии, религия и искусство Cовременная проза, мемуары - Пир бессмертных 03. Пучина [Бухмин Аркадий, 2015] Magnat 279 MB
Показать сообщения:    

Текущее время: Сегодня 12:30

Часовой пояс: GMT



Вы не можете начинать темы
Вы не можете отвечать на сообщения
Вы не можете редактировать свои сообщения
Вы не можете удалять свои сообщения
Вы не можете голосовать в опросах
Вы не можете прикреплять файлы к сообщениям
Вы не можете скачивать файлы