Смерть Сталина. Конец эпохи / Stalin’s Death – The End of an Era [2014, Документальный, история, биография, HDTVRip]

 
Автор Сообщение

TorrentFilm ®

Пол:

Стаж: 2 года

Сообщений: 7741



Награды: Нет

Торрент-статистика

Создавать темы 26-Июл-2015 00:06

[Цитировать]

Смерть Сталина. Конец эпохи / Stalin’s Death – The End of an Era
Дата/Год выпуска: 2014
Жанр: Документальный, история, биография
Продолжительность: 00:43:30
Перевод: Студийный (одноголосый закадровый)
Телеканал: Viasat History HD
Описание: 3 марта 1953 года умер Иосиф Сталин. Более 1,5 миллиона граждан Советского Союза со всей страны отправляются в Москву, чтобы проститься с великим вождем. С жизнью этого человека была связана целая эпоха в жизни Советского союза, которая неожиданно закончилась, и вызвала мгновенную жесткую борьбу за власть в Кремле. К удивлению большинства, Никита Хрущев становится преемником Сталина. Впервые в этом фильме двойник Сталина, офицеры разведки, сын Никиты Хрущева расскажут о последних днях Иосифа Сталина.
Доп. информация: Авторство релиза - alf62

качество: HDTVRip 720p
формат: MKV
Видео: MPEG-4 AVC, 3500 Кбит/с, 1280x720
Аудио: АС3, 2 ch, 192 Кбит/с

MediaInfo

Smert.Stalina.Konec.jepohi.2014.720p.hdtv.x264.alf62.mkvФормат : MatroskaВерсия формата : Version 4 / Version 2Размер файла : 1,12 ГбайтПродолжительность : 43 м.Общий поток : 3671 Кбит/секДата кодирования : UTC 2015-07-21 23:32:05Программа кодирования : mkvmerge v6.0.0 ('Coming Up For Air') built on Jan 20 2013 09:52:00Библиотека кодирования : libebml v1.3.0 + libmatroska v1.4.0
ВидеоИдентификатор : 1Формат : AVCФормат/Информация : Advanced Video CodecПрофиль формата : High@L4.0Параметр CABAC формата : ДаПараметр ReFrames формата : 8 кадровИдентификатор кодека : V_MPEG4/ISO/AVCПродолжительность : 43 м.Битрейт : 3500 Кбит/секШирина : 1280 пикселейВысота : 720 пикселейСоотношение сторон : 16:9Режим частоты кадров : ПостоянныйЧастота кадров : 25,000 кадров/секЦветовое пространство : YUVСубдискретизация насыщенности : 4:2:0Битовая глубина : 8 битТип развёртки : ПрогрессивнаяБит/(Пиксели*Кадры) : 0.152Размер потока : 1,03 Гбайт (93%)Библиотека кодирования : x264 core 130 r2273 b3065e6Настройки программы : cabac=1 / ref=8 / deblock=1:-1:-1 / analyse=0x3:0x133 / me=umh / subme=7 / psy=1 / psy_rd=1.00:0.10 / mixed_ref=1 / me_range=16 / chroma_me=1 / trellis=2 / 8x8dct=1 / cqm=0 / deadzone=21,11 / fast_pskip=0 / chroma_qp_offset=-3 / threads=6 / lookahead_threads=1 / sliced_threads=0 / nr=0 / decimate=1 / interlaced=0 / bluray_compat=0 / constrained_intra=0 / bframes=3 / b_pyramid=2 / b_adapt=2 / b_bias=0 / direct=3 / weightb=1 / open_gop=0 / weightp=2 / keyint=250 / keyint_min=25 / scenecut=40 / intra_refresh=0 / rc_lookahead=50 / rc=2pass / mbtree=1 / bitrate=3500 / ratetol=1.0 / qcomp=0.60 / qpmin=0 / qpmax=69 / qpstep=4 / cplxblur=20.0 / qblur=0.5 / ip_ratio=1.40 / aq=1:1.00Язык : EnglishDefault : НетForced : Нет
АудиоИдентификатор : 2Формат : AC-3Формат/Информация : Audio Coding 3Расширение режима : CM (complete main)Параметр Endianness формата : BigИдентификатор кодека : A_AC3Продолжительность : 43 м.Вид битрейта : ПостоянныйБитрейт : 192 Кбит/секКаналы : 2 каналаРасположение каналов : Front: L RЧастота : 48,0 КГцБитовая глубина : 16 битМетод сжатия : С потерямиРазмер потока : 59,7 Мбайт (5%)Язык : EnglishDefault : НетForced : Нет

Скриншоты


[Профиль] [ЛС]
Показать сообщения:    

Текущее время: Сегодня 20:19

Часовой пояс: GMT



Вы не можете начинать темы
Вы не можете отвечать на сообщения
Вы не можете редактировать свои сообщения
Вы не можете удалять свои сообщения
Вы не можете голосовать в опросах
Вы не можете прикреплять файлы к сообщениям
Вы не можете скачивать файлы