Смерть негодяя / Mort D'Un Pourri (1977) BDRip 720p от 0ptimus | D, P

 
Автор Сообщение

sergej644 ®

Пол:

Стаж: 4 года 11 месяцев

Сообщений: 6038

Откуда: Soviet Union



Награды: Нет

Торрент-статистика

Создавать темы 20-Окт-2014 17:59

[Цитировать]

Смерть негодяя | Mort D'Un Pourri |
Информация о фильме
Название: Смерть негодяя
Оригинальное название: Mort D'Un Pourri
Год выхода: 1977
Жанр: Триллер, драма, криминал
Режиссер: Жорж Лотнер
В ролях: Ален Делон, Орнелла Мути, Стефан Одран, Мирей Дарк, Морис Роне, Мишель Омон, Жан Буиз, Даниэль Секкальди, Жюльен Гиомар, Клаус Кински, Франсуа Шометт, Ксавье Депраз, Анри Вирложё, Колетт Дюваль, Кароль Ланж, Эль Кебир, Жерар Эрольд, Шарль Мулен, Роже Мюни, Клод Баришасс, Эмиль Риандре, Жан Берже, Филипп Кастелли, Сильвестр Варниа де Зажецкий, Жан-Поль Денизон, Арлетт Эммери, Мод Окар, Арнель Иссартель, Катрин Лашанс, Патрик Лаплас, Доминик Мессали, Шарль Мийо, Жак Писиас, Мишель Руль, Иван Танги
О фильме:
Внезапная смерть депутата, убийцы и коррумпированного мафиози перевернула жизнь его давнего бескорыстного друга Ксавье Марешаля. В его руки попадает злополучная тетрадь с компроматом на столпов общества, которые преследуют неподкупного человека с убийственной изощренностью. Но он выбирает позицию «одинокого волка», не доверяет ни полиции, ни спецслужбам до тех пор, пока охотники за шокирующим документом не загоняют его в угол.

Страна: Франция
Студия: Adel Productions
Продолжительность: 02:03:36
Перевод: Дублированный, профессиональный многоголосый
Файл
Кодек: h264
Качество: BDRip 720p
Видео: 7286 Кбит/с, 1172x720, 23.976 кадр/с
Звук:
• Русский (AC3, 6 ch, 448 Кбит/с) Дублированный [Мосфильм]
• Русский (AC3, 2 ch, 192 Кбит/с) Профессиональный многоголосый [Останкино]
• Французский (DTS, 1 ch, 768 Кбит/с)
Субтитры: Русские

MediaInfo

---------------------------------------------------------------------------------------
x264 [info]: frame I:1254 Avg QP:17.52 size:113161
x264 [info]: frame P:34713 Avg QP:19.72 size: 59530
x264 [info]: frame B:141850 Avg QP:20.81 size: 32034
---------------------------------------------------------------------------------------
Полное имя : Smert.negodyaja.1977.x264.BDRip.(720p).0ptimus.mkv
Формат : Matroska
Версия формата : Version 2
Размер файла : 7,51 Гбайт
Продолжительность : 2 ч. 3 м.
Общий поток : 8694 Кбит/сек
Название фильма : Смерть негодяя / Mort D'Un Pourri [1977] -=BDRip (720p) by 0ptimus=-
Дата кодирования : UTC 2012-07-15 16:57:35
Программа кодирования : mkvmerge v5.7.0 ('The Whirlwind') built on Jul 8 2012 20:08:51
Библиотека кодирования : libebml v1.2.3 + libmatroska v1.3.0
Видео
Идентификатор : 1
Формат : AVC
Формат/Информация : Advanced Video Codec
Профиль формата : High@L4.1
Параметр CABAC формата : Да
Параметр ReFrames формата : 9 кадров
Идентификатор кодека : V_MPEG4/ISO/AVC
Продолжительность : 2 ч. 3 м.
Битрейт : 7286 Кбит/сек
Ширина : 1172 пикселя
Высота : 720 пикселей
Соотношение сторон : 1,628
Частота кадров : 23,976 кадра/сек
Цветовое пространство : YUV
Субдискретизация насыщенности : 4:2:0
Битовая глубина : 8 бит
Тип развёртки : Прогрессивная
Бит/(Пиксели*Кадры) : 0.360
Размер потока : 6,15 Гбайт (82%)
Заголовок : by 0ptimus
Библиотека кодирования : x264 core 125 r2200 999b753
Настройки программы : cabac=1 / ref=9 / deblock=1:-2:-1 / analyse=0x3:0x113 / me=umh / subme=11 / psy=1 / psy_rd=1.00:0.20 / mixed_ref=1 / me_range=32 / chroma_me=1 / trellis=2 / 8x8dct=1 / cqm=0 / deadzone=21,11 / fast_pskip=0 / chroma_qp_offset=-3 / threads=4 / lookahead_threads=1 / sliced_threads=0 / nr=0 / decimate=0 / interlaced=0 / bluray_compat=0 / constrained_intra=0 / bframes=7 / b_pyramid=2 / b_adapt=2 / b_bias=0 / direct=3 / weightb=1 / open_gop=0 / weightp=2 / keyint=240 / keyint_min=23 / scenecut=40 / intra_refresh=0 / rc_lookahead=40 / rc=2pass / mbtree=0 / bitrate=7286 / ratetol=1.0 / qcomp=0.60 / qpmin=0 / qpmax=69 / qpstep=4 / cplxblur=20.0 / qblur=0.5 / vbv_maxrate=50000 / vbv_bufsize=50000 / nal_hrd=none / ip_ratio=1.40 / pb_ratio=1.30 / aq=1:1.00
Язык : English
Default : Да
Forced : Да
Аудио #1
Идентификатор : 2
Формат : AC-3
Формат/Информация : Audio Coding 3
Расширение режима : CM (complete main)
Параметр Endianness формата : Big
Идентификатор кодека : A_AC3
Продолжительность : 2 ч. 3 м.
Вид битрейта : Постоянный
Битрейт : 448 Кбит/сек
Каналы : 6 каналов
Расположение каналов : Front: L C R, Side: L R, LFE
Частота : 48,0 КГц
Битовая глубина : 16 бит
Метод сжатия : С потерями
Размер потока : 396 Мбайт (5%)
Заголовок : Дублированный [Мосфильм]
Язык : Russian
Default : Да
Forced : Да
Аудио #2
Идентификатор : 3
Формат : AC-3
Формат/Информация : Audio Coding 3
Профиль формата : Dolby Digital
Расширение режима : CM (complete main)
Параметр Endianness формата : Big
Идентификатор кодека : A_AC3
Продолжительность : 2 ч. 3 м.
Вид битрейта : Постоянный
Битрейт : 192 Кбит/сек
Каналы : 2 канала
Расположение каналов : Front: L R
Частота : 48,0 КГц
Битовая глубина : 16 бит
Метод сжатия : С потерями
Размер потока : 170 Мбайт (2%)
Заголовок : Многоголосый [Останкино]
Язык : Russian
Default : Нет
Forced : Нет
Аудио #3
Идентификатор : 4
Формат : DTS
Формат/Информация : Digital Theater Systems
Идентификатор кодека : A_DTS
Продолжительность : 2 ч. 3 м.
Вид битрейта : Постоянный
Битрейт : 755 Кбит/сек
Каналы : 1 канал
Расположение каналов : Front: C
Частота : 48,0 КГц
Битовая глубина : 16 бит
Метод сжатия : С потерями
Размер потока : 667 Мбайт (9%)
Язык : French
Default : Нет
Forced : Нет
Текст
Идентификатор : 5
Формат : UTF-8
Идентификатор кодека : S_TEXT/UTF8
Идентификатор кодека/Информация : UTF-8 Plain Text
Язык : Russian
Default : Нет
Forced : Нет
Меню
00:00:00.000 : :Chapter 01
00:02:38.116 : :Chapter 02
00:10:21.996 : :Chapter 03
00:19:00.055 : :Chapter 04
00:26:03.353 : :Chapter 05
00:35:55.236 : :Chapter 06
00:43:43.245 : :Chapter 07
00:51:49.147 : :Chapter 08
01:01:59.424 : :Chapter 09
01:10:01.113 : :Chapter 10
01:18:02.386 : :Chapter 11
01:25:33.378 : :Chapter 12
01:33:34.567 : :Chapter 13
01:40:47.583 : :Chapter 14
01:52:08.388 : :Chapter 15
01:55:35.845 : :Chapter 16
02:03:36.409 : :Chapter 17

Скриншоты



--Релиз от:
[Профиль] [ЛС]
Кто просматривает тему:

Форум Тема Автор Размер
Фильмы 2014 года 2047 – Угроза смерти / 2047: Sights of Death (2014) HDRip | L1 BOSS 703 MB
Фильмы 2014 года 2047 – Угроза смерти / 2047: Sights of Death (Алессандро Капоне) [2014, фантастика, боевик, триллер] HDRip | L1 BOSS 1.45 GB
Фильмы 2010 года 22 пули: Бессмертный / 22 Bullets: L'immortel (Ришар Берри) [2010 г., Боевик, драма, криминал, HDRip] DUB BOSS 1.45 GB
Фильмы (HD Rips | 720p, 1080p) 31: Праздник смерти / 31 (2016) WEB-DL 1080p | iTunes Russian Mafia 3.4 GB
Фильмы 2016 года 31: Праздник смерти / 31 (2016) WEB-DLRip | iTunes Russian Mafia 1.37 GB
BBC BBC: Horizon. В поисках бессмертия / Horizon. The Immortalist (Tristan Quinn) [2016 г., Документальный, научно-познавательный, HDTVRip-AVC 720p] skorpionN 1.52 GB
BBC BBC: Бессмертный Египет с Джоанн Флетчер (История Египта) / Immortal Egypt with Joann Fletcher (The Story of Egypt) [серии 1-4 из 4] (Ian A. Hunt) [2015 г., Документальный, история, исследования,... skorpionN 7.22 GB
История, биографии, религия и искусство Cовременная проза, мемуары - Пир бессмертных 03. Пучина [Бухмин Аркадий, 2015] Magnat 279 MB
Показать сообщения:    

Текущее время: Сегодня 04:15

Часовой пояс: GMT



Вы не можете начинать темы
Вы не можете отвечать на сообщения
Вы не можете редактировать свои сообщения
Вы не можете удалять свои сообщения
Вы не можете голосовать в опросах
Вы не можете прикреплять файлы к сообщениям
Вы не можете скачивать файлы