Смерть в раю / Death in Paradise [04x01] (2015) HDTVRip | Райдо

 
Автор Сообщение

Белочка ®

Пол:

Стаж: 5 лет 1 месяц

Сообщений: 2089



Награды: 1 (Подробнее)

Girls (Количество: 1)
Торрент-статистика

Создавать темы 18-Янв-2015 07:14

[Цитировать]

Информация о фильме
Название: Смерть в раю
Оригинальное название: Death in Paradise
Год выхода: 2015
Жанр: триллер, драма, криминал, детектив
Режиссер: Олрик Райли, Роджер Голдби, Пол Харрисон
В ролях: Сара Мартинс, Дэнни Джон-Джулс, Гари Карр, Элизабет Буржин, Бен Миллер, Дон Уоррингтон, Крис Маршалл, Эдриан Данбар, Морвен Кристи, Мона Хэммонд
О фильме:
Детективный сериал о инспекторе Лондонского управления полиции, Ричарде Пуле, которого отправили вести расследования в одно из самых (по его мнению) ужасных мест на земле — карибский остров Сент-Мари.
Официальный сайт
Страна: Великобритания, Франция
Студия: Red Planet Pictures and Atlantique Production, in association with Kudos for the BBC and France Télévisions
Продолжительность: ~00:59:00 серия
Перевод: Любительский (двухголосый закадровый) [студия Райдо]
Файл
Кодек: XviD / AC3, MP3
Качество: HDTVRip
Видео: MPEG4, XviD, 640x360 (16:9), 25.000 fps, 1 046 Kbps (0.182 bit/pixel)
Звук:
Аудио #1: AC-3, 48.0 KHz, 2 ch, 192 Kbps, CBR [rus]
Аудио #2: MP3, 48.0 KHz, 2 ch, 128 Kbps, VBR [eng]

MediaInfo

General
Complete name : /Death in Paradise.s04.Райдо/Death in Paradise.s04e01.Raidho.avi
Format : AVI
Format/Info : Audio Video Interleave
File size : 578 MiB
Duration : 58mn 30s
Overall bit rate mode : Variable
Overall bit rate : 1 380 Kbps
Writing application : VirtualDubMod 1.5.10.2 (build 2540/release)
Writing library : VirtualDubMod build 2540/release
Video
ID : 0
Format : MPEG-4 Visual
Format profile : Advanced Simple@L5
Format settings, BVOP : 2
Format settings, QPel : No
Format settings, GMC : No warppoints
Format settings, Matrix : Default (H.263)
Codec ID : XVID
Codec ID/Hint : XviD
Duration : 58mn 30s
Bit rate : 1 046 Kbps
Width : 640 pixels
Height : 360 pixels
Display aspect ratio : 16:9
Frame rate : 25.000 fps
Color space : YUV
Chroma subsampling : 4:2:0
Bit depth : 8 bits
Scan type : Progressive
Compression mode : Lossy
Bits/(Pixel*Frame) : 0.182
Stream size : 438 MiB (76%)
Writing library : XviD 64
Audio #1
ID : 1
Format : AC-3
Format/Info : Audio Coding 3
Mode extension : CM (complete main)
Format settings, Endianness : Big
Codec ID : 2000
Duration : 58mn 30s
Bit rate mode : Constant
Bit rate : 192 Kbps
Channel(s) : 2 channels
Channel positions : Front: L R
Sampling rate : 48.0 KHz
Bit depth : 16 bits
Compression mode : Lossy
Stream size : 80.3 MiB (14%)
Alignment : Split accross interleaves
Interleave, duration : 40 ms (1.00 video frame)
Interleave, preload duration : 500 ms
Audio #2
ID : 2
Format : MPEG Audio
Format version : Version 1
Format profile : Layer 3
Mode : Joint stereo
Mode extension : MS Stereo
Codec ID : 55
Codec ID/Hint : MP3
Duration : 58mn 30s
Bit rate mode : Variable
Bit rate : 128 Kbps
Channel(s) : 2 channels
Sampling rate : 48.0 KHz
Compression mode : Lossy
Stream size : 53.6 MiB (9%)
Alignment : Split accross interleaves
Interleave, duration : 40 ms (1.00 video frame)
Interleave, preload duration : 500 ms
[Профиль] [ЛС]
Показать сообщения:    

Текущее время: Сегодня 05:15

Часовой пояс: GMT



Вы не можете начинать темы
Вы не можете отвечать на сообщения
Вы не можете редактировать свои сообщения
Вы не можете удалять свои сообщения
Вы не можете голосовать в опросах
Вы не можете прикреплять файлы к сообщениям
Вы не можете скачивать файлы