Смерть в Буэнос-Айресе / Muerte en Buenos Aires (Наталия Мета / Natalia Meta) [2014, Аргентина, Триллер, драма, мелодрама, криминал, детектив, DVDRip] VO (Кирилл Иванов) + Original Spa

 
Автор Сообщение

TorrentFilm ®

Пол:

Стаж: 2 года

Сообщений: 7741



Награды: Нет

Торрент-статистика

Создавать темы 08-Янв-2015 00:15

[Цитировать]

Смерть в Буэнос-Айресе / Muerte en Buenos Aires
Страна: Аргентина
Жанр: Триллер, драма, мелодрама, криминал, детектив
Год выпуска: 2014
Продолжительность: 01:31:52
Перевод: Одноголосый закадровый Кирилл Иванов
Cубтитры: нет
Оригинальная аудиодорожка: испанский
Режиссер: Наталия Мета / Natalia Meta
В ролях: Моника Антонопулос, Уго Арана, Фабиан Аренильяс, Хорхелина Арусси, Демиан Бишир, Карлос Казелла, Чино Дарин, Макси Диорио, Эмилио Диси, Луиса Кулиок
Описание: Буэнос-Айрес, восьмидесятых. Инспектор Чавес, семейный человек и жесткий полицейский, отвечает за расследование убийства в Буэнос-Айресе высшего общества. С ним агент Гомес, псевдоним Эль Гансо, привлекательный новобранец полицейский, который становится его правой рукой и используется в качестве приманки, чтобы поймать убийцу.
Доп. информация: Ограничения по возрасту: 18 лет
Кинопоиск IMDB
Сэмпл: http://sendfile.su/1070290
Качество видео: DVDRip
Формат видео: AVI
Видео: DIVX, 720x304, 1 391 Kbps, 23.976 fps, 0.265 b/p
Аудио: AC-3, 384 Kbps, 6 channels, 48.0 KHz (Русский одноголосый)
Аудио 2: AC-3, 384 Kbps, 6 channels, 48.0 KHz (Испанский)

MediaInfo

General
Complete name : E:\Фильмы\Muerte.En.Buenos.Aires.2014.DVDRip.AVO.avi
Format : AVI
Format/Info : Audio Video Interleave
File size : 1.39 GiB
Duration : 1h 31mn
Overall bit rate : 2 173 Kbps
Writing application : VirtualDubMod 1.5.10.2 (build 2540/release)
Writing library : VirtualDubMod build 2540/release
Video
ID : 0
Format : MPEG-4 Visual
Format profile : Advanced Simple@L4
Format settings, BVOP : 2
Format settings, QPel : No
Format settings, GMC : No warppoints
Format settings, Matrix : Default (H.263)
Codec ID : DIVX
Codec ID/Info : Project Mayo
Codec ID/Hint : DivX 4
Duration : 1h 31mn
Bit rate : 1 391 Kbps
Width : 720 pixels
Height : 304 pixels
Display aspect ratio : 2.35:1
Frame rate : 23.976 fps
Color space : YUV
Chroma subsampling : 4:2:0
Bit depth : 8 bits
Scan type : Progressive
Compression mode : Lossy
Bits/(Pixel*Frame) : 0.265
Stream size : 914 MiB (64%)
Writing library : XviD 64
Audio #1
ID : 1
Format : AC-3
Format/Info : Audio Coding 3
Mode extension : CM (complete main)
Format settings, Endianness : Big
Codec ID : 2000
Duration : 1h 31mn
Bit rate mode : Constant
Bit rate : 384 Kbps
Channel(s) : 6 channels
Channel positions : Front: L C R, Side: L R, LFE
Sampling rate : 48.0 KHz
Bit depth : 16 bits
Compression mode : Lossy
Stream size : 252 MiB (18%)
Alignment : Split accross interleaves
Interleave, duration : 42 ms (1.00 video frame)
Interleave, preload duration : 500 ms
Audio #2
ID : 2
Format : AC-3
Format/Info : Audio Coding 3
Mode extension : CM (complete main)
Format settings, Endianness : Big
Codec ID : 2000
Duration : 1h 31mn
Bit rate mode : Constant
Bit rate : 384 Kbps
Channel(s) : 6 channels
Channel positions : Front: L C R, Side: L R, LFE
Sampling rate : 48.0 KHz
Bit depth : 16 bits
Compression mode : Lossy
Stream size : 252 MiB (18%)
Alignment : Split accross interleaves
Interleave, duration : 42 ms (1.00 video frame)
Interleave, preload duration : 500 ms

Скриншот c названием фильма

Скриншоты

[Профиль] [ЛС]
Показать сообщения:    

Текущее время: Сегодня 19:30

Часовой пояс: GMT



Вы не можете начинать темы
Вы не можете отвечать на сообщения
Вы не можете редактировать свои сообщения
Вы не можете удалять свои сообщения
Вы не можете голосовать в опросах
Вы не можете прикреплять файлы к сообщениям
Вы не можете скачивать файлы