Смертельно скучающий / Убить скуку / Bored to Death / Сезон: 1-3 / Серии: 1-24 из 24 (Майкл Леманн, Адам Бернштейн, Алан Тейлор) [2009-2011, комедия, криминал, детектив, HDRip] MVO (Novamedia) + Original

 
Автор Сообщение

Russian Mafia ®

Пол:

Стаж: 1 год 8 месяцев

Сообщений: 4246



Награды: 10 (Подробнее)

Top Releaser 3 (Количество: 1) Mega Seeder 1 (Количество: 1) Top Releaser 5 (Количество: 1)
Торрент-статистика

Создавать темы 24-Мар-2016 08:27

[Цитировать]

Смертельно скучающий / Убить скуку / Bored to Death
Год выпуска: 2009-2011
Страна: США
Жанр: комедия, криминал, детектив
Продолжительность: ~ 00:27:00
Перевод: Профессиональный (многоголосый закадровый) Novamedia
Режиссёр: Майкл Леманн, Адам Бернштейн, Алан Тейлор
b]В ролях: Джейсон Шварцман, Зак Галифианакис, Тед Дэнсон, Хезер Бёрнс, Джон Ходжмэн, Дэвид Раш, Оливер Платт, Хэлли Фейффер, Дженни Слейт, Оливия Тирлби
Описание: Главный герой сериала — Джонатан, неудавшийся писатель и пьяница. После болезненного разрыва с девушкой Джонатан решает подражать своим любимым персонажам из романов Чендлера и Хэммета. Он притворяется частным детективом и берется за разные дела, решая одни и еще больше запутывая другие.

Качество: HDRip
Формат: AVI
Видео: 720x400 (1.80:1), 23.976 fps, XviD build 65 ~1999 kbps avg, 0.29 bit/pixel
Аудио: 48 kHz, AC3 Dolby Digital, 2/0 (L,R) ch, ~192 kbps
Аудио 2: 48 kHz, AC3 Dolby Digital, 2/0 (L,R) ch, ~192 kbps
Субтитры: отсутствуют

MediaInfo

Общее
Полное имя : C:\Users\pushkin\Desktop\Убить скуку(Bored to Вeath)\Bored to Death Season 1 CasStudio.TV\Bored.to.Death.s01e01.rus.eng.CasStudio.TV.avi
Формат : AVI
Формат/Информация : Audio Video Interleave
Размер файла : 514 Мбайт
Продолжительность : 29 м.
Общий поток : 2398 Кбит/сек
Программа кодирования : VirtualDubMod 1.5.10.2 (build 2540/release)
Библиотека кодирования : VirtualDubMod build 2540/release
Видео
Идентификатор : 0
Формат : MPEG-4 Visual
Профиль формата : Advanced Simple@L5
Параметр BVOP формата : 1
Параметр QPel формата : Нет
Параметр GMC формата : Без точки перехода
Параметр матрицы формата : Default (MPEG)
Идентификатор кодека : XVID
Идентификатор кодека/Подсказка : XviD
Продолжительность : 29 м.
Битрейт : 2000 Кбит/сек
Ширина : 720 пикселей
Высота : 400 пикселей
Соотношение сторон : 16:9
Частота кадров : 23,976 кадра/сек
Цветовое пространство : YUV
Субдискретизация насыщенности : 4:2:0
Битовая глубина : 8 бит
Тип развёртки : Прогрессивная
Метод сжатия : С потерями
Бит/(Пиксели*Кадры) : 0.290
Размер потока : 429 Мбайт (83%)
Библиотека кодирования : XviD 65
Аудио #1
Идентификатор : 1
Формат : AC-3
Формат/Информация : Audio Coding 3
Расширение режима : CM (complete main)
Параметр Endianness формата : Big
Идентификатор кодека : 2000
Продолжительность : 29 м.
Вид битрейта : Постоянный
Битрейт : 192 Кбит/сек
Каналы : 2 канала
Расположение каналов : Front: L R
Частота : 48,0 КГц
Битовая глубина : 16 бит
Метод сжатия : С потерями
Размер потока : 41,1 Мбайт (8%)
Выравнивание : Разделение по промежуткам
Продолжительность промежутка : 42 мс. (1,00 видеокадр)
Время предзагрузки промежутка : 500 мс.
Аудио #2
Идентификатор : 2
Формат : AC-3
Формат/Информация : Audio Coding 3
Расширение режима : CM (complete main)
Параметр Endianness формата : Big
Идентификатор кодека : 2000
Продолжительность : 29 м.
Вид битрейта : Постоянный
Битрейт : 192 Кбит/сек
Каналы : 2 канала
Расположение каналов : Front: L R
Частота : 48,0 КГц
Битовая глубина : 16 бит
Метод сжатия : С потерями
Размер потока : 41,1 Мбайт (8%)
Выравнивание : Разделение по промежуткам
Продолжительность промежутка : 42 мс. (1,00 видеокадр)
Время предзагрузки промежутка : 500 мс.

Скриншоты

[Профиль] [ЛС]
Кто просматривает тему:

Форум Тема Автор Размер
Фильмы 2014 года 2047 – Угроза смерти / 2047: Sights of Death (2014) HDRip | L1 BOSS 703 MB
Фильмы 2014 года 2047 – Угроза смерти / 2047: Sights of Death (Алессандро Капоне) [2014, фантастика, боевик, триллер] HDRip | L1 BOSS 1.45 GB
Фильмы 2010 года 22 пули: Бессмертный / 22 Bullets: L'immortel (Ришар Берри) [2010 г., Боевик, драма, криминал, HDRip] DUB BOSS 1.45 GB
Фильмы (HD Rips | 720p, 1080p) 31: Праздник смерти / 31 (2016) WEB-DL 1080p | iTunes Russian Mafia 3.4 GB
Фильмы 2016 года 31: Праздник смерти / 31 (2016) WEB-DLRip | iTunes Russian Mafia 1.37 GB
BBC BBC: Horizon. В поисках бессмертия / Horizon. The Immortalist (Tristan Quinn) [2016 г., Документальный, научно-познавательный, HDTVRip-AVC 720p] skorpionN 1.52 GB
BBC BBC: Бессмертный Египет с Джоанн Флетчер (История Египта) / Immortal Egypt with Joann Fletcher (The Story of Egypt) [серии 1-4 из 4] (Ian A. Hunt) [2015 г., Документальный, история, исследования,... skorpionN 7.22 GB
История, биографии, религия и искусство Cовременная проза, мемуары - Пир бессмертных 03. Пучина [Бухмин Аркадий, 2015] Magnat 279 MB
Показать сообщения:    

Текущее время: Сегодня 18:19

Часовой пояс: GMT



Вы не можете начинать темы
Вы не можете отвечать на сообщения
Вы не можете редактировать свои сообщения
Вы не можете удалять свои сообщения
Вы не можете голосовать в опросах
Вы не можете прикреплять файлы к сообщениям
Вы не можете скачивать файлы