Смертельно живой (2015) WEB-DL 1080p

 
Автор Сообщение

достали все ®

Пол:

Стаж: 2 года 3 месяца

Сообщений: 6778



Награды: 12 (Подробнее)

Mega Seeder 1 (Количество: 1) Mega Seeder 4 (Количество: 1) Top Releaser 3 (Количество: 1)
Торрент-статистика

Создавать темы 10-Июн-2015 11:02

[Цитировать]

Информация о фильме
Название: Смертельно живой
Год выхода: 2015
Жанр: Tриллер, драма, детектив
Режиссер: Максим Стецков
В ролях: Виктория Варлей, Максим Стецков, Александр Герелес, Вячеслав Довженко, Олег Примогенов, Михаил Кришталь
О фильме:
Семен — известный писатель. На протяжении трех лет ему приходят смс сообщения от неизвестного номера с предсказанием будущего. Что бы Семен не делал, все предсказания сбывались. Все попытки найти автора сообщений увенчались провалом. Поэтому Семен продолжает жить спокойной жизнью. До тех пор, пока ему не приходит очередное сообщение…

Страна: Украина
Продолжительность: 01:16:24
Язык: Русский
Файл
Кодек: MPEG-4 AVC
Качество: WEB-DL 1080p
Видео: MPEG-4 AVC, ~ 4000 Кбит/с, 1912x816, 25 кадр/с
Звук: AC3, 2 ch, 192 Кбит/с
Семпл

Инфо-файл

General
Complete name : Smertelno.zhivoy.2015.WEB-DL.(1080p).ExKinoRay.mkv
Format : Matroska
Format version : Version 2
File size : 2.24 GiB
Duration : 1h 16mn
Overall bit rate : 4 194 Kbps
Encoded date : UTC 2015-06-10 02:32:07
Writing application : mkvmerge v5.8.0 ('No Sleep / Pillow') built on Sep 2 2012 15:37:04
Writing library : libebml v1.2.3 + libmatroska v1.3.0
Video
ID : 1
Format : AVC
Format/Info : Advanced Video Codec
Format profile : High@L4.0
Format settings, CABAC : Yes
Format settings, ReFrames : 3 frames
Format settings, GOP : M=1, N=15
Codec ID : V_MPEG4/ISO/AVC
Duration : 1h 16mn
Bit rate : 3 919 Kbps
Width : 1 912 pixels
Height : 816 pixels
Display aspect ratio : 2.35:1
Frame rate mode : Constant
Frame rate : 25.000 fps
Color space : YUV
Chroma subsampling : 4:2:0
Bit depth : 8 bits
Scan type : Progressive
Bits/(Pixel*Frame) : 0.100
Stream size : 2.09 GiB (93%)
Language : Russian
Default : Yes
Forced : Yes
Color primaries : BT.709
Transfer characteristics : BT.709
Matrix coefficients : BT.709
Color range : Limited
Audio
ID : 2
Format : AC-3
Format/Info : Audio Coding 3
Mode extension : CM (complete main)
Format settings, Endianness : Big
Codec ID : A_AC3
Duration : 1h 16mn
Bit rate mode : Constant
Bit rate : 192 Kbps
Channel(s) : 2 channels
Channel positions : Front: L R
Sampling rate : 48.0 KHz
Bit depth : 16 bits
Compression mode : Lossy
Stream size : 105 MiB (5%)
Language : Russian
Default : Yes
Forced : Yes

Скриншоты


[Профиль] [ЛС]
Кто просматривает тему:

Форум Тема Автор Размер
BBC BBC: Horizon. В поисках бессмертия / Horizon. The Immortalist (Tristan Quinn) [2016 г., Документальный, научно-познавательный, HDTVRip-AVC 720p] skorpionN 1.52 GB
BBC BBC: Бессмертный Египет с Джоанн Флетчер (История Египта) / Immortal Egypt with Joann Fletcher (The Story of Egypt) [серии 1-4 из 4] (Ian A. Hunt) [2015 г., Документальный, история, исследования,... skorpionN 7.22 GB
Зарубежные сериалы В пустыне смерти / Into the Badlands (Сезон 2 , Серия 1-10 из 10) (Дэвид Добкин) [2017 , Боевик, драма, приключения, экранизация , WEB-DLRip 1080p] [LostFilm , АМC , OmskBird , NewStudiо ,BaibaKo ,... Враг Нароода 31.69 GB
Фильмы 2017 года Мгновенная смерть / Instant Death (2017) DVDRip | L BOSS 1.37 GB
Фильмы 2017 года Смертельная Гонка 2050 / Death Race 2050 (2017) HDRip | L BOSS 1.37 GB
Фильмы 2017 года Танцы насмерть (2017) WEB-DLRip | iTunes BOSS 1.46 GB
Отечественные cериалы Трасса смерти [01-10 из 10] (2017) HDTVRip-AVC BOSS 7.01 GB
Отечественные cериалы Трасса смерти [01-10 из 10] (2017) SATRip BOSS 6.24 GB
Показать сообщения:    

Текущее время: Сегодня 14:28

Часовой пояс: GMT



Вы не можете начинать темы
Вы не можете отвечать на сообщения
Вы не можете редактировать свои сообщения
Вы не можете удалять свои сообщения
Вы не можете голосовать в опросах
Вы не можете прикреплять файлы к сообщениям
Вы не можете скачивать файлы